Loading...
Error

Голубой Дунай / Blue Danube. Black Sea (Пол Реддиш) [2004 г., документальный, природа, фауна, флора, SatRip] VO (Русский Репортаж)

Статистика раздачи
Размер:  603 MB   |    Зарегистрирован:  3 года 11 месяцев   |    Скачан:  2 раза

Полного источника не было: 9 часов

Сидов:  0  |  0 KB/s  ]   Личеров:  0  |  0 KB/s  ]

* - сиды/пиры с внешних источников

   
 
Автор Сообщение

ARI71 Пол:Муж

25-Окт-2018 12:07

Голубой Дунай / Blue Danube. Black Sea


Год выпуска: 2004
Жанр: документальный, природа, фауна, флора
Страна: Великобритания ВВС, ZDF
Режиссер: Пол Реддиш
Сюжет фильма:
Каждый год, с началом осени, краснозобые казарки направляются из Сибири, где они размножаются, на юг в один из заповедников Европы. Об этом заповеднике дикой природы мало кто слышал, а ещё меньше тех, кто его видел. Этот заповедник расположен на территории двух государств - Румынии и Украины. А именно там, где Дунай, впадая в Черное море, разливается в широкую дельту.
Качество видео: SatRip

Продолжительность: 00:48:28
Формат: AVI
Видео: XviD, 640x480, 1601 kbps
Аудио: русский, одноголосый [профессиональный, Русский Репортаж], MP3 2.0, 128 kbps
Автор рипа: shibay9
Автор постера: Barents

На русский язык фильм озвучен кинокомпанией по заказу телеагенства - "Русский Репортаж"

Код:

Общее
Полное имя : BBC.Goluboj.Dunaj.2004.XviD.SATRip.avi
Формат : AVI
Формат/Информация : Audio Video Interleave
Размер файла : 603 Мбайт
Продолжительность : 48 м. 28 с.
Общий поток : 1739 Кбит/сек
Программа кодирования : VirtualDubMod 1.5.10.3 | www.virtualdub-fr.org || (build 2550/release)
Библиотека кодирования : VirtualDubMod build 2550/release

Видео
Идентификатор : 0
Формат : MPEG-4 Visual
Профиль формата : Advanced [email protected]
Настройки формата : BVOP1
Параметр BVOP формата : 1
Параметр QPel формата : Нет
Параметр GMC формата : Без точки перехода
Параметр матрицы формата : Default (MPEG)
Идентификатор кодека : XVID
Идентификатор кодека/Подсказка : XviD
Продолжительность : 48 м. 28 с.
Битрейт : 1601 Кбит/сек
Ширина : 640 пикселей
Высота : 480 пикселей
Соотношение сторон : 4:3
Частота кадров : 25,000 кадров/сек
Цветовое пространство : YUV
Субдискретизация насыщенности : 4:2:0
Битовая глубина : 8 бит
Тип развёртки : Прогрессивная
Метод сжатия : С потерями
Бит/(Пиксели*Кадры) : 0.208
Размер потока : 555 Мбайт (92%)
Библиотека кодирования : XviD 1.2.1 (UTC 2008-12-04)

Аудио
Идентификатор : 1
Формат : MPEG Audio
Версия формата : Version 1
Профиль формата : Layer 3
Идентификатор кодека : 55
Идентификатор кодека/Подсказка : MP3
Продолжительность : 48 м. 28 с.
Вид битрейта : Постоянный
Битрейт : 128 Кбит/сек
Каналы : 2 канала
Частота : 48,0 КГц
Частота кадров : 41,667 кадра/сек (1152 SPF)
Метод сжатия : С потерями
Размер потока : 44,4 Мбайт (7%)
Выравнивание : Соединение по промежуткам
Продолжительность промежутка : 40 мс. (1,00 видеокадр)
Время предзагрузки промежутка : 504 мс.
Библиотека кодирования : LAME3.98r
Настройки программы : -m s -V 4 -q 2 -lowpass 17 -b 128
picpicpicpicpic
Для увеличения картинки щелкните мышкой по превью

Этот торрент недоступен для скачивания без регистрации, однако доступен по публичной magnet-ссылке (источники с публичных трекеров). Перед использованием ссылки прочтите, пожалуйста Пользовательское соглашение, а также как можно дольше оставайтесь на раздаче! Для того, чтобы скачать сам торрент-файл (который видит больше источников), а также для того, чтобы поблагодарить релизера, вам необходимо зарегистрироваться. Если регистрироваться лень - вы можете также попробовать скачать релиз по нашим партнерским ссылкам ниже. Кроме того, зарегистрированным пользователям не показывается всплывающая реклама при скачивании.

[underverse.name].t117134.torrent
Трекер: Зарегистрирован   [ 25.10.2018 12:07 ]  
Статус: проверено (by ARI71 at 25.10.2018 12:07)
Поблагодарили: 2 человека
Тип торрента: публичный - доступные источники с открытых трекеров: 
Размер: 603 MB (занимает 0.13 DVDR, для записи нужно 1 болванка DVDR/RW)
 
 

Яндекс.Метрика powered by Sphinx


В Н И М А Н И Е
Сайт не распространяет и не хранит электронные версии произведений, а лишь бесплатно и без коммерческой выгоды (не требуя взамен платы,
SMS и т.д.) предоставляет доступ к создаваемому пользователями каталогу ссылок на торрент-файлы, которые содержат только списки хеш-сумм.
Убедительная просьба с жалобами обращаться напрямую к пользователю, разместившему торрент файл.

Вверх