Loading...
Error

Шесть королев Генриха VIII / Henry VIII and His Six Wives (The Six Queens of Henry VIII) / (1 сезон: 4 серии из 4) / (Крис Холт) [2016 г., документальный, игровой, история, HDTVRip] DVO (SDI Media)

Статистика раздачи
Размер:  2.34 GB   |    Зарегистрирован:  3 года 3 месяца   |    Скачан:  2 раза

Полного источника не было: 2 месяца 17 дней

Сидов:  0  |  0 KB/s  ]   Личеров:  0  |  0 KB/s  ]

* - сиды/пиры с внешних источников

   
 
Автор Сообщение

ARI71 Пол:Муж

10-Июн-2019 13:04

Шесть королев Генриха VIII / Henry VIII and His Six Wives (The Six Queens of Henry VIII) / (1 сезон: 4 серии из 4)


Год выпуска: 2016
Жанр: документальный, игровой, история
Страна: Великобритания ВВС, Viasat History
Режиссер: Крис Холт
Текст читают: Ольга Зубкова, Геннадий Новиков
Сюжет фильма:
Сериал о жизни великого короля Англии, который был одним из самых прогрессивных, но и жестоких правителей. Монарх был женат шесть раз. С двумя из жен он развелся, а двух других казнил за измену. Но они были не просто женами. Они были королевами. Эти шесть королев были очень разными: амбициозными, отважными, жестокими. Все они повлияли на историю Англии.
Качество видео: HDTVRip

Продолжительность: 4 х ~ 00:43:00
Формат: AVI
Видео: XviD, 720х400, 1797 kbps
Аудио: русский, двухголосый [профессиональный, SDI Media], AC3 2.0, 128 kbps

Русскоязычный постер от: ARI71
01. Катарина Арагонская / Katherine of Aragon
Катарина Арагонская, была первой женой Генриха. Мало кому известна история их любви, страсти и трагедий, что их разобщили. Ее роль зачастую преуменьшают но именно эта королева-воительница научила Генриха быть королем.

02. Анна Болейн / Anne Boleyn
Анна Болейн, чарующая любовница Генриха VIII, отчаянно хочет быть королевой Англии. Сексуально одержимый Анной и отчаянно мечтая о сыне, Генрих безжалостно бросает Екатерину Арагонскую.

03. Джейн Cеймур и Анна Клевская / Jane Seymour & Anne of Cleves
После десятков лет неудач третья жена Генриха VIII Джейн Сеймур наконец-то рожает ему сына и наследника. Но сама она трагически умирает через несколько дней после родов, обращая радость в отчаяние.

04. Екатерина Говард и Екатерина Парр / Catherine Howard & Catherine Parr
В 1539 году, после четырех неудачных браков, Генрих VIII влюбляется в Екатерину Говард, но у нее оказывается тайное сексуальное прошлое.

Код:

Общее
Полное имя : Шесть королев Генриха 1400M (2016)\1 Шесть королев.avi
Формат : AVI
Формат/Информация : Audio Video Interleave
Размер файла : 599 Мбайт
Продолжительность : 43 м. 13 с.
Общий поток : 1936 Кбит/сек
Программа кодирования : Lavf57.71.100

Видео
Идентификатор : 0
Формат : MPEG-4 Visual
Профиль формата : Advanced [email protected]
Настройки формата : BVOP1
Параметр BVOP формата : 1
Параметр QPel формата : Нет
Параметр GMC формата : Без точки перехода
Параметр матрицы формата : Default (H.263)
Идентификатор кодека : XVID
Идентификатор кодека/Подсказка : XviD
Продолжительность : 43 м. 13 с.
Битрейт : 1797 Кбит/сек
Ширина : 720 пикселей
Высота : 400 пикселей
Соотношение сторон : 16:9
Частота кадров : 25,000 кадров/сек
Цветовое пространство : YUV
Субдискретизация насыщенности : 4:2:0
Битовая глубина : 8 бит
Тип развёртки : Прогрессивная
Метод сжатия : С потерями
Бит/(Пиксели*Кадры) : 0.250
Размер потока : 556 Мбайт (93%)
Библиотека кодирования : XviD 67

Аудио
Идентификатор : 1
Формат : AC-3
Формат/Информация : Audio Coding 3
Коммерческое название : Dolby Digital
Идентификатор кодека : 2000
Продолжительность : 43 м. 13 с.
Вид битрейта : Постоянный
Битрейт : 128 Кбит/сек
Каналы : 2 канала
Channel layout : L R
Частота : 48,0 КГц
Частота кадров : 31,250 кадров/сек (1536 SPF)
Битовая глубина : 16 бит
Метод сжатия : С потерями
Размер потока : 39,6 Мбайт (7%)
Выравнивание : Соединение по промежуткам
Продолжительность промежутка : 32 мс. (0,80 видеокадр)
ServiceKind/String : Complete Main
picpicpicpicpic
Для увеличения картинки щелкните мышкой по превью

Этот торрент недоступен для скачивания без регистрации, однако доступен по публичной magnet-ссылке (источники с публичных трекеров). Перед использованием ссылки прочтите, пожалуйста Пользовательское соглашение, а также как можно дольше оставайтесь на раздаче! Для того, чтобы скачать сам торрент-файл (который видит больше источников), а также для того, чтобы поблагодарить релизера, вам необходимо зарегистрироваться. Если регистрироваться лень - вы можете также попробовать скачать релиз по нашим партнерским ссылкам ниже. Кроме того, зарегистрированным пользователям не показывается всплывающая реклама при скачивании.

[underverse.name].t135651.torrent
Трекер: Зарегистрирован   [ 10.06.2019 13:04 ]  
Статус: проверено (by ARI71 at 10.06.2019 13:06)
Поблагодарили: пока никто не поблагодарил...
Тип торрента: публичный - доступные источники с открытых трекеров: 
Размер: 2.34 GB (занимает 0.54 DVDR, для записи нужно 1 болванка DVDR/RW)
 
 

Яндекс.Метрика powered by Sphinx


В Н И М А Н И Е
Сайт не распространяет и не хранит электронные версии произведений, а лишь бесплатно и без коммерческой выгоды (не требуя взамен платы,
SMS и т.д.) предоставляет доступ к создаваемому пользователями каталогу ссылок на торрент-файлы, которые содержат только списки хеш-сумм.
Убедительная просьба с жалобами обращаться напрямую к пользователю, разместившему торрент файл.

Вверх