Loading...
Error

Калигула. Что это было / Caligula with Mary Beard (Хьюго Макгрегор) [2013 г., документальный, история, биография, HDTVRip] DVO (Видеофильм ТВ)

Статистика раздачи
Размер:  887 MB   |    Зарегистрирован:  3 года 2 месяца   |    Скачан:  9 раз

Полного источника не было: 24 дня

Сидов:  0  |  0 KB/s  ]   Личеров:  0  |  0 KB/s  ]

* - сиды/пиры с внешних источников

   
 
Автор Сообщение

ARI71 Пол:Муж

13-Июл-2019 15:24

Калигула. Что это было / Caligula with Mary Beard


Год выпуска: 2013
Жанр: документальный, история, биография
Страна: Великобритания Lion Television All3 Media Production for BBC
Режиссер: Хьюго Макгрегор
Ведущая: Мэри Бёрд
Сюжет фильма:
Калигулу называли по разному: безжалостный, преступный, жестокий, инфантильный, извращенец, скандалист, манипулятор. Он правил самой сильной в мире империей с садистской жестокостью. Он был мстительный, опасный и безответственный. Власть его террора длилась всего 1400 дней, но даже сегодня всем знакомо его имя. Калигула действительно зло во плоти. Он был очень молод, когда сел на трон. Трон дал этому неопытному человеку полную власть и испортил его. Он вошел в учебник истории как один из самых худших. Был ли он безумцем или просто злодеем, Калигула остался примером того, как безграничная власть уродует человека. Он действительно стал бессмертным, чего всегда так жаждал. Ведь даже сегодня, через 2000 лет после его царства террора, дурная слава о нем живет.

Качество видео: HDTVRip

Продолжительность: 00:59:02
Формат: AVI
Видео: XviD, 720x400, 1900 kbps
Аудио: русский, двухголосый [профессиональный], AC3 2.0, 192 kbps
Автор релиза: RockeT
Русскоязычный постер от: ARI71
Перевод и озвучка: "Телекомпания Видеофильм ТВ"

Код:

Общее
Полное имя : BBC_Caligula with Mary Beard.HDTVRip.avi
Формат : AVI
Формат/Информация : Audio Video Interleave
Размер файла : 887 Мбайт
Продолжительность : 59 м. 2 с.
Общий поток : 2102 Кбит/сек
Программа кодирования : VirtualDubMod 1.5.10.3 | www.virtualdub-fr.org || (build 2550/release)
Библиотека кодирования : VirtualDubMod build 2550/release

Видео
Идентификатор : 0
Формат : MPEG-4 Visual
Профиль формата : Advanced [email protected]
Настройки формата : BVOP1
Параметр BVOP формата : 1
Параметр QPel формата : Нет
Параметр GMC формата : Без точки перехода
Параметр матрицы формата : Default (MPEG)
Идентификатор кодека : XVID
Идентификатор кодека/Подсказка : XviD
Продолжительность : 59 м. 2 с.
Битрейт : 1900 Кбит/сек
Ширина : 720 пикселей
Высота : 400 пикселей
Соотношение сторон : 16:9
Частота кадров : 25,000 кадров/сек
Цветовое пространство : YUV
Субдискретизация насыщенности : 4:2:0
Битовая глубина : 8 бит
Тип развёртки : Прогрессивная
Метод сжатия : С потерями
Бит/(Пиксели*Кадры) : 0.264
Размер потока : 802 Мбайт (90%)
Библиотека кодирования : XviD 73

Аудио
Идентификатор : 1
Формат : AC-3
Формат/Информация : Audio Coding 3
Коммерческое название : Dolby Digital
Идентификатор кодека : 2000
Продолжительность : 59 м. 2 с.
Вид битрейта : Постоянный
Битрейт : 192 Кбит/сек
Каналы : 2 канала
Channel layout : L R
Частота : 48,0 КГц
Частота кадров : 31,250 кадров/сек (1536 SPF)
Битовая глубина : 16 бит
Метод сжатия : С потерями
Размер потока : 81,1 Мбайт (9%)
Выравнивание : Разделение по промежуткам
Продолжительность промежутка : 40 мс. (1,00 видеокадр)
Время предзагрузки промежутка : 500 мс.
ServiceKind/String : Complete Main
picpicpicpicpic
Для увеличения картинки щелкните мышкой по превью

Этот торрент недоступен для скачивания без регистрации, однако доступен по публичной magnet-ссылке (источники с публичных трекеров). Перед использованием ссылки прочтите, пожалуйста Пользовательское соглашение, а также как можно дольше оставайтесь на раздаче! Для того, чтобы скачать сам торрент-файл (который видит больше источников), а также для того, чтобы поблагодарить релизера, вам необходимо зарегистрироваться. Если регистрироваться лень - вы можете также попробовать скачать релиз по нашим партнерским ссылкам ниже. Кроме того, зарегистрированным пользователям не показывается всплывающая реклама при скачивании.

[underverse.name].t138368.torrent
Трекер: Зарегистрирован   [ 13.07.2019 15:24 ]  
Статус: проверено (by ARI71 at 13.07.2019 15:24)
Поблагодарили: 3 человека
Тип торрента: публичный - доступные источники с открытых трекеров: 
Размер: 887 MB (занимает 0.2 DVDR, для записи нужно 1 болванка DVDR/RW)
 
 

Яндекс.Метрика powered by Sphinx


В Н И М А Н И Е
Сайт не распространяет и не хранит электронные версии произведений, а лишь бесплатно и без коммерческой выгоды (не требуя взамен платы,
SMS и т.д.) предоставляет доступ к создаваемому пользователями каталогу ссылок на торрент-файлы, которые содержат только списки хеш-сумм.
Убедительная просьба с жалобами обращаться напрямую к пользователю, разместившему торрент файл.

Вверх