Loading...
Error

Пустынная война Черчилля. Дорога к Эль-Аламейну / Churchill's Desert War: The Road to El Alamein (Робин Барнвелл) [2012 г., документальный, война, история, HDTVRip] VO

Статистика раздачи
Размер:  1.18 GB   |    Зарегистрирован:  3 года 1 месяц   |    Скачан:  5 раз

Полного источника не было: 2 года 11 месяцев

Сидов:  0  |  0 KB/s  ]   Личеров:  0  |  0 KB/s  ]

* - сиды/пиры с внешних источников

   
 
Автор Сообщение

ARI71 Пол:Муж

29-Июл-2019 14:41

Пустынная война Черчилля. Дорога к Эль-Аламейну / Churchill's Desert War: The Road to El Alamein


Год выпуска: 2012
Жанр: документальный, война, история
Страна: Великобритания BBC
Режиссер: Робин Барнвелл
Ведущий: Джонатан Димблби
Сюжет фильма:
Танковое сражение в районе Эль-Аламейна стало крупнейшей операцией подобного рода, проведенной в течение Второй мировой войны вне советско-германского фронта. На пустынных просторах Северной Африки бронетанковым соединениям британской 8-й армии впервые удалось одержать убедительную победу над танковой армией «Африка», которой руководил легендарный германский полководец Эрвин Роммель. Наряду со Сталинградской битвой сражение у Эль-Аламейна стало переломным моментом в великом противоборстве стран антигитлеровской коалиции и государств Оси.

Качество видео: HDTVRip

Продолжительность: 01:29:03
Формат: AVI
Видео: DivX 5, 704x400, 1699 kbps
Аудио: русский, одноголосый [профессиональный], AC3 2.0, 192 kbps

Код:

Общее
Полное имя : Pustynnaja.vojna.Cherchillja.Doroga.k.Jel-Alamejnu.2012.DivX.HDTVRip.alf62.avi
Формат : AVI
Формат/Информация : Audio Video Interleave
Размер файла : 1,18 Гбайт
Продолжительность : 1 ч. 29 м.
Общий поток : 1901 Кбит/сек
Библиотека кодирования : Boilsoft Joiner build 2411/release

Видео
Идентификатор : 0
Формат : MPEG-4 Visual
Профиль формата : Advanced [email protected]
Настройки формата : BVOP2
Параметр BVOP формата : 2
Параметр QPel формата : Нет
Параметр GMC формата : Без точки перехода
Параметр матрицы формата : Default (MPEG)
Идентификатор кодека : DX50
Идентификатор кодека/Подсказка : DivX 5
Продолжительность : 1 ч. 29 м.
Битрейт : 1699 Кбит/сек
Ширина : 704 пикселя
Высота : 400 пикселей
Соотношение сторон : 16:9
Частота кадров : 25,000 кадров/сек
Цветовое пространство : YUV
Субдискретизация насыщенности : 4:2:0
Битовая глубина : 8 бит
Тип развёртки : Прогрессивная
Метод сжатия : С потерями
Бит/(Пиксели*Кадры) : 0.241
Размер потока : 1,06 Гбайт (89%)
Библиотека кодирования : XviD 73

Аудио
Идентификатор : 1
Формат : AC-3
Формат/Информация : Audio Coding 3
Коммерческое название : Dolby Digital
Идентификатор кодека : 2000
Продолжительность : 1 ч. 29 м.
Вид битрейта : Постоянный
Битрейт : 192 Кбит/сек
Каналы : 2 канала
Channel layout : L R
Частота : 48,0 КГц
Частота кадров : 31,250 кадров/сек (1536 SPF)
Битовая глубина : 16 бит
Метод сжатия : С потерями
Задержка видео : 528 мс.
Размер потока : 122 Мбайт (10%)
Выравнивание : Разделение по промежуткам
Продолжительность промежутка : 40 мс. (1,00 видеокадр)
Время предзагрузки промежутка : 500 мс.
ServiceKind/String : Complete Main
picpicpicpicpic
Для увеличения картинки щелкните мышкой по превью

Этот торрент недоступен для скачивания без регистрации, однако доступен по публичной magnet-ссылке (источники с публичных трекеров). Перед использованием ссылки прочтите, пожалуйста Пользовательское соглашение, а также как можно дольше оставайтесь на раздаче! Для того, чтобы скачать сам торрент-файл (который видит больше источников), а также для того, чтобы поблагодарить релизера, вам необходимо зарегистрироваться. Если регистрироваться лень - вы можете также попробовать скачать релиз по нашим партнерским ссылкам ниже. Кроме того, зарегистрированным пользователям не показывается всплывающая реклама при скачивании.

[underverse.name].t139661.torrent
Трекер: Зарегистрирован   [ 29.07.2019 14:41 ]  
Статус: проверено (by ARI71 at 29.07.2019 14:42)
Поблагодарили: 1 человек
Тип торрента: публичный - доступные источники с открытых трекеров: 
Размер: 1.18 GB (занимает 0.27 DVDR, для записи нужно 1 болванка DVDR/RW)
 
 

Яндекс.Метрика powered by Sphinx


В Н И М А Н И Е
Сайт не распространяет и не хранит электронные версии произведений, а лишь бесплатно и без коммерческой выгоды (не требуя взамен платы,
SMS и т.д.) предоставляет доступ к создаваемому пользователями каталогу ссылок на торрент-файлы, которые содержат только списки хеш-сумм.
Убедительная просьба с жалобами обращаться напрямую к пользователю, разместившему торрент файл.

Вверх