Loading...
Error

Удовольствие и боль (Наслаждение и боль) / Pleasure and pain (Виктория Белл) [2010 г., документальный, научно-популярный, SatRip] DVO

Статистика раздачи
Размер:  776 MB   |    Зарегистрирован:  3 года 1 месяц   |    Скачан:  6 раз

Полного источника не было: 7 месяцев

Сидов:  0  |  0 KB/s  ]   Личеров:  0  |  0 KB/s  ]

* - сиды/пиры с внешних источников

   
 
Автор Сообщение

ARI71 Пол:Муж

04-Авг-2019 10:35

Удовольствие и боль (Наслаждение и боль) / Pleasure and pain


Год выпуска: 2010
Жанр: документальный, научно-популярный
Страна: Великобритания ВВС
Режиссер: Виктория Белл
Ведущий: Майкл Мосли
Сюжет фильма:
Наслаждение жизненно необходимо для выживания. Если бы его не было, мы бы не ели и не занимались сексом и вскоре бы исчезли с лица Земли. Но как оно действует, и что дает нам самое большое наслаждение в жизни? Пытаясь выяснить это, Майкл Моcли узнает, как острый перец чили создает эйфорию, почему родителей переполняет любовь к их новорожденным детям и что случится, если вы превратите вашу свадьбу в химический эксперимент. Мы знаем, что наслаждение и боль идут рука об руку, там, где наслаждение, недалеко и боль, и Майкл Моcли подвергает себя некоторым, достаточно неприятным экспериментам, чтобы показать, почему они взаимосвязаны.
Качество видео: SatRip

Продолжительность: 00:50:34
Формат: AVI
Видео: XviD, 720x400, 1912 kbps
Аудио: русский, двухголосый закадровый [профессиональный], MP3 2.0, 224 kbps

Код:

Общее
Полное имя : Naslazhdenie_i_bol'_(Nauka_2.0)_[*другой трекер*].avi
Формат : AVI
Формат/Информация : Audio Video Interleave
Размер файла : 776 Мбайт
Продолжительность : 50 м. 34 с.
Общий поток : 2146 Кбит/сек
Программа кодирования : VirtualDubMod 1.6.0.0 SURROUND (build 2560/release)
Библиотека кодирования : VirtualDubMod build 2560/release

Видео
Идентификатор : 0
Формат : MPEG-4 Visual
Профиль формата : Advanced [email protected]
Настройки формата : BVOP2
Параметр BVOP формата : 2
Параметр QPel формата : Нет
Параметр GMC формата : Без точки перехода
Параметр матрицы формата : Default (MPEG)
Идентификатор кодека : XVID
Идентификатор кодека/Подсказка : XviD
Продолжительность : 50 м. 34 с.
Битрейт : 1912 Кбит/сек
Ширина : 720 пикселей
Высота : 400 пикселей
Соотношение сторон : 5:4
Соотношение сторон в оригинале : 16:9
Частота кадров : 25,000 кадров/сек
Цветовое пространство : YUV
Субдискретизация насыщенности : 4:2:0
Битовая глубина : 8 бит
Тип развёртки : Прогрессивная
Метод сжатия : С потерями
Бит/(Пиксели*Кадры) : 0.266
Размер потока : 692 Мбайт (89%)
Библиотека кодирования : XviD 1.2.1 (UTC 2008-12-04)

Аудио
Идентификатор : 1
Формат : MPEG Audio
Версия формата : Version 1
Профиль формата : Layer 3
Настройки формата : Joint stereo / MS Stereo
Идентификатор кодека : 55
Идентификатор кодека/Подсказка : MP3
Продолжительность : 50 м. 34 с.
Вид битрейта : Постоянный
Битрейт : 224 Кбит/сек
Каналы : 2 канала
Частота : 48,0 КГц
Частота кадров : 41,667 кадра/сек (1152 SPF)
Метод сжатия : С потерями
Размер потока : 81,0 Мбайт (10%)
Выравнивание : Разделение по промежуткам
Продолжительность промежутка : 40 мс. (1,00 видеокадр)
Время предзагрузки промежутка : 500 мс.
Библиотека кодирования : LAME3.99r
Настройки программы : -m j -V 4 -q 3 -lowpass 19.4 -b 224
picpicpicpicpic
Для увеличения картинки щелкните мышкой по превью

Этот торрент недоступен для скачивания без регистрации, однако доступен по публичной magnet-ссылке (источники с публичных трекеров). Перед использованием ссылки прочтите, пожалуйста Пользовательское соглашение, а также как можно дольше оставайтесь на раздаче! Для того, чтобы скачать сам торрент-файл (который видит больше источников), а также для того, чтобы поблагодарить релизера, вам необходимо зарегистрироваться. Если регистрироваться лень - вы можете также попробовать скачать релиз по нашим партнерским ссылкам ниже. Кроме того, зарегистрированным пользователям не показывается всплывающая реклама при скачивании.

[underverse.name].t140058.torrent
Трекер: Зарегистрирован   [ 04.08.2019 10:35 ]  
Статус: проверено (by ARI71 at 04.08.2019 10:35)
Поблагодарили: пока никто не поблагодарил...
Тип торрента: публичный - доступные источники с открытых трекеров: 
Размер: 776 MB (занимает 0.17 DVDR, для записи нужно 1 болванка DVDR/RW)
 
 

Яндекс.Метрика powered by Sphinx


В Н И М А Н И Е
Сайт не распространяет и не хранит электронные версии произведений, а лишь бесплатно и без коммерческой выгоды (не требуя взамен платы,
SMS и т.д.) предоставляет доступ к создаваемому пользователями каталогу ссылок на торрент-файлы, которые содержат только списки хеш-сумм.
Убедительная просьба с жалобами обращаться напрямую к пользователю, разместившему торрент файл.

Вверх