Loading...
Error

Трагический близнец Титаника. Катастрофа Британника / Titanic's Tragic Twin: The Britannic Disaster (Ренни Бартлетт) [2016, документально-игровой, SATRip-AVC] DVO

Статистика раздачи
Размер:  748 MB   |    Зарегистрирован:  2 года 5 месяцев   |    Скачан:  2 раза

Полного источника не было: 14 часов

Сидов:  0  |  0 KB/s  ]   Личеров:  0  |  0 KB/s  ]

* - сиды/пиры с внешних источников

   
 
Автор Сообщение

ARI71 Пол:Муж

15-Апр-2020 11:17

Трагический близнец "Титаника". Катастрофа "Британника"
Titanic's Tragic Twin: The Britannic Disaster


Год выпуска: 2016
Страна: Великобритания, ВВС
Жанр: документально-игровой, катастрофы
Продолжительность: 00:59:00
Перевод: профессиональный (двухголосый закадровый)
Режиссер: Ренни Бартлетт

Описание: Трагедия "Титаника" стала одной из самых громких и обсуждаемых во всем мире. Но было еще одно по-настоящему драматическое событие, которое унесло с собой жизни десятков людей. Авторы документально-исторического фильма "Трагический близнец "Титаника". Катастрофа "Британника" предлагают своим зрителям исследование об этом трагическом инциденте. Всего за несколько месяцев до начала боевых действий Первой мировой войны "Британник", считающийся братом-близнецом "Титаника", оказался на воде и был официально принят в активную эксплуатацию в качестве госпиталя, который может оказывать помощь военно-морским судам. 21 ноября 1916 года судно было вынуждено пройти канал в Эгейском море. Именно в этот момент произошел разрыв корпуса. Корабль пошел на дно и через час полностью затонул. С собой он унес жизни тридцати человек. Но что с ним произошло? Благодаря использованию редких документов, фотографий, писем членов экипажа, неопубликованных ранее дневников и современных подводных лодок, авторы попытаются понять, что же случилось в тот трагический день.



качество: SATRip-AVC

формат: MKV
Видео: AVC (H.264), 704x384 (1.85:1), 25 fps, ~1609 kbps avg, 0.238 bit/pixel
Аудио: MPEG Audio 2, 2 ch, 48 kHz, ~160.00 kbps avg
 
General
Unique ID : 327543359857779520777066647731287016970 (0xF66A8E75B462D6F536991718C2F6C60A)
Complete name : [apreder]Titanic's_Tragic_Twin_The_Britannic_Disaster(2016)SATRip.mkv
Format : Matroska
Format version : Version 2
File size : 748 MiB
Duration : 59 min 0 s
Overall bit rate : 1 771 kb/s
Movie name : Titanic's Tragic Twin: The Britannic Disaster
Released date : 2016-12-05
Encoded date : UTC 2018-07-27 15:43:02
Writing application : mkvmerge v25.0.0 ('Prog Noir') 64-bit
Writing library : libebml v1.3.6 + libmatroska v1.4.9
Cover : Yes
Attachments : cover.jpg / small_cover.jpg
GENRE : Documentary
IMDB : tt7140714
KEYWORDS : *другой трекер*
LAW_RATING : 12+

Video
ID : 1
Format : AVC
Format/Info : Advanced Video Codec
Format profile : [email protected]
Format settings : CABAC / 16 Ref Frames
Format settings, CABAC : Yes
Format settings, RefFrames : 16 frames
Codec ID : V_MPEG4/ISO/AVC
Duration : 59 min 0 s
Bit rate : 1 609 kb/s
Width : 704 pixels
Height : 384 pixels
Display aspect ratio : 1.85:1
Frame rate mode : Constant
Frame rate : 25.000 FPS
Color space : YUV
Chroma subsampling : 4:2:0
Bit depth : 8 bits
Scan type : Progressive
Bits/(Pixel*Frame) : 0.238
Stream size : 665 MiB (89%)
Writing library : x264 core 155 r2901 7d0ff22
Encoding settings : cabac=1 / ref=16 / deblock=1:-1:-1 / analyse=0x3:0x133 / me=umh / subme=10 / psy=1 / psy_rd=1.00:0.15 / mixed_ref=1 / me_range=24 / chroma_me=1 / trellis=2 / 8x8dct=1 / cqm=0 / deadzone=21,11 / fast_pskip=1 / chroma_qp_offset=-3 / threads=12 / lookahead_threads=2 / sliced_threads=0 / nr=0 / decimate=1 / interlaced=0 / bluray_compat=0 / constrained_intra=0 / bframes=8 / b_pyramid=2 / b_adapt=2 / b_bias=0 / direct=3 / weightb=1 / open_gop=0 / weightp=2 / keyint=250 / keyint_min=25 / scenecut=40 / intra_refresh=0 / rc_lookahead=60 / rc=2pass / mbtree=1 / bitrate=1609 / ratetol=1.0 / qcomp=0.60 / qpmin=0 / qpmax=69 / qpstep=4 / cplxblur=20.0 / qblur=0.5 / vbv_maxrate=62500 / vbv_bufsize=78125 / nal_hrd=none / filler=0 / ip_ratio=1.40 / aq=1:1.00
Default : Yes
Forced : No

Audio
ID : 2
Format : MPEG Audio
Format version : Version 1
Format profile : Layer 2
Codec ID : A_MPEG/L2
Codec ID/Hint : MP2
Duration : 59 min 0 s
Bit rate mode : Constant
Bit rate : 160 kb/s
Channel(s) : 2 channels
Sampling rate : 48.0 kHz
Compression mode : Lossy
Stream size : 67.5 MiB (9%)
Language : Russian
Default : Yes
Forced : No

Этот торрент недоступен для скачивания без регистрации, однако доступен по публичной magnet-ссылке (источники с публичных трекеров). Перед использованием ссылки прочтите, пожалуйста Пользовательское соглашение, а также как можно дольше оставайтесь на раздаче! Для того, чтобы скачать сам торрент-файл (который видит больше источников), а также для того, чтобы поблагодарить релизера, вам необходимо зарегистрироваться. Если регистрироваться лень - вы можете также попробовать скачать релиз по нашим партнерским ссылкам ниже. Кроме того, зарегистрированным пользователям не показывается всплывающая реклама при скачивании.

[underver.se].t165149.torrent
Трекер: Зарегистрирован   [ 15.04.2020 11:17 ]  
Статус: проверено (by ARI71 at 15.04.2020 11:18)
Поблагодарили: пока никто не поблагодарил...
Тип торрента: публичный - доступные источники с открытых трекеров: 
Размер: 748 MB (занимает 0.17 DVDR, для записи нужно 1 болванка DVDR/RW)
 
 

Яндекс.Метрика powered by Sphinx


В Н И М А Н И Е
Сайт не распространяет и не хранит электронные версии произведений, а лишь бесплатно и без коммерческой выгоды (не требуя взамен платы,
SMS и т.д.) предоставляет доступ к создаваемому пользователями каталогу ссылок на торрент-файлы, которые содержат только списки хеш-сумм.
Убедительная просьба с жалобами обращаться напрямую к пользователю, разместившему торрент файл.

Вверх