Loading...
Error

"Испанка". Грипп, унесший 50 миллионов жизней / The Flu That Killed 50 Million (Эндрю Томпсон, Ричард Брайт) [2018 г., документальный, научно-популярный, HDTVRip 1080p] VO

Статистика раздачи
Размер:  705 MB   |    Зарегистрирован:  2 года 5 месяцев   |    Скачан:  21 раз

Полного источника не было: 3 часа

Сидов:  0  |  0 KB/s  ]   Личеров:  0  |  0 KB/s  ]

* - сиды/пиры с внешних источников

   
 
Автор Сообщение

makkol Пол:Муж

22-Апр-2020 20:41

"Испанка". Грипп, унесший 50 миллионов жизней / The Flu That Killed 50 Million


Год выпуска: 2018
Жанр: документальный, научно-популярный
Производство: Великобритания [BBC Two - Horizon]
Режиссер: Эндрю Томпсон, Ричард Брайт
В ролях: Кристофер Экклстон
Сюжет фильма:
Впервые Би-би-си обнародует дневниковые записи, личные письма и документы, чтобы услышать голоса людей, в жизни которых эпидемия сыграла свою зловещую роль. Врачи и медсёстры, чиновники здравоохранения, солдаты в окопах — в документальном фильме Би-би-си история пандемии рассказывается через личные истории реальных людей. Полмиллиарда инфицированных, по меньшей мере 50 миллионов погибших. Пандемия «испанского» гриппа, разразившаяся чуть больше столетия назад, по сей день считается одной из самых страшных страниц в истории человечества.

Качество видео: HDTVRip 1080p

Продолжительность: 00:48:58
Формат: MKV
Видео: MPEG-4 AVC, 1920x1080 (16:9), 25.000 fps, 1882 kbps
Аудио: русский, профессиональный одноголосый закадровый (BBC News Русская служба), AAC 2.0, 44.1 kHz, 128 kbps

Рип: tommy4gun

Код:

Общее
Уникальный идентификатор : 180269573631068730464648132489752523885 (0x879EA8309D548ECE474ED83ED896B46D)
Полное имя : The.Flu.That.Killed.50.Million.HDTV.1080p.tommy4gun.mkv
Формат : Matroska
Версия формата : Version 4
Размер файла : 705 Мбайт
Продолжительность : 48 м. 58 с.
Общий поток : 2012 Кбит/сек
Дата кодирования : UTC 2020-04-22 18:07:08
Программа кодирования : mkvmerge v45.0.0 ('Heaven in Pennies') 64-bit
Библиотека кодирования : libebml v1.3.10 + libmatroska v1.5.2

Видео
Идентификатор : 1
Формат : AVC
Формат/Информация : Advanced Video Codec
Профиль формата : [email protected]
Настройки формата : CABAC / 3 Ref Frames
Параметр CABAC формата : Да
Параметр RefFrames формата : 3 кадра
Идентификатор кодека : V_MPEG4/ISO/AVC
Продолжительность : 48 м. 58 с.
Битрейт : 1882 Кбит/сек
Ширина : 1920 пикселей
Высота : 1080 пикселей
Соотношение сторон : 16:9
Режим частоты кадров : Постоянный
Частота кадров : 25,000 кадров/сек
Цветовое пространство : YUV
Субдискретизация насыщенности : 4:2:0
Битовая глубина : 8 бит
Тип развёртки : Прогрессивная
Бит/(Пиксели*Кадры) : 0.036
Размер потока : 659 Мбайт (94%)
Библиотека кодирования : x264 core 155 r2901 7d0ff22
Default : Да
Forced : Нет
Цветовой диапазон : Limited
Основные цвета : BT.709
Характеристики трансфера : BT.709
Коэффициенты матрицы : BT.709

Аудио
Идентификатор : 2
Формат : AAC LC
Формат/Информация : Advanced Audio Codec Low Complexity
Идентификатор кодека : A_AAC-2
Продолжительность : 48 м. 58 с.
Битрейт : 128 Кбит/сек
Каналы : 2 канала
ChannelLayout : L R
Частота : 44,1 КГц
Частота кадров : 43,066 кадра/сек (1024 SPF)
Метод сжатия : С потерями
Размер потока : 44,8 Мбайт (6%)
Default : Да
Forced : Нет

Этот торрент недоступен для скачивания без регистрации, однако доступен по публичной magnet-ссылке (источники с публичных трекеров). Перед использованием ссылки прочтите, пожалуйста Пользовательское соглашение, а также как можно дольше оставайтесь на раздаче! Для того, чтобы скачать сам торрент-файл (который видит больше источников), а также для того, чтобы поблагодарить релизера, вам необходимо зарегистрироваться. Если регистрироваться лень - вы можете также попробовать скачать релиз по нашим партнерским ссылкам ниже. Кроме того, зарегистрированным пользователям не показывается всплывающая реклама при скачивании.

[underver.se].t165976.torrent
Трекер: Зарегистрирован   [ 22.04.2020 20:44 ]  
Статус: проверено (by Inspektor_49 at 23.04.2020 07:55)
Поблагодарили: пока никто не поблагодарил...
Тип торрента: публичный - доступные источники с открытых трекеров: 
Размер: 705 MB (занимает 0.16 DVDR, для записи нужно 1 болванка DVDR/RW)
 
 

Яндекс.Метрика powered by Sphinx


В Н И М А Н И Е
Сайт не распространяет и не хранит электронные версии произведений, а лишь бесплатно и без коммерческой выгоды (не требуя взамен платы,
SMS и т.д.) предоставляет доступ к создаваемому пользователями каталогу ссылок на торрент-файлы, которые содержат только списки хеш-сумм.
Убедительная просьба с жалобами обращаться напрямую к пользователю, разместившему торрент файл.

Вверх