Loading...
Error

Бокс. Александр Усик - Дерек Чисора [31.10] [2020 г., бокс , IPTV 1080p]

Статистика раздачи
Размер:  2.04 GB   |    Зарегистрирован:  1 год 10 месяцев   |    Скачан:  2 раза

Полного источника не было: 1 год 1 месяц

Сидов:  0  |  0 KB/s  ]   Личеров:  0  |  0 KB/s  ]

* - сиды/пиры с внешних источников

   
 
Автор Сообщение

eXtatik Пол:Муж

05-Ноя-2020 18:33

Бокс. Александр Усик - Дерек Чисора [31.10]


Название: Бокс. Александр Усик — Дерек Чисора
Год выхода: 2020
Жанр: Бокс

Телеканал: Беларусь 5 HD

Описание:
Александр Усик — Дерек Чисора — рейтинговый профессиональный боксерский 12-раундовый поединок в тяжёлом весе за статус официального претендента на титул чемпиона мира по версии WBO. Поединок состоялся 31 октября 2020 года на Уэмбли Арене в Лондоне

Страна: Великобритания
Продолжительность: 01:22:41
Язык комментариев: Русский (П. Баранов)

Кодек: x.264
Качество: IPTV 1080p
Видео: AVC, 1920x1080 (16:9), 25.000 fps, 3 374 kb/s
Аудио: AAC, 48.0 kHz, 2 ch, 161 kb/s
General
Unique ID : 238774746762931044477543309386379340307 (0xB3A257EE01535D018F3DEAF8DE1AAA13)
Complete name : Dereck Chisora vs Oleksandr Usyk (31-10-2020) [RUS] 1080p.mkv
Format : Matroska
Format version : Version 4
File size : 2.04 GiB
Duration : 1 h 22 min
Overall bit rate mode : Variable
Overall bit rate : 3 538 kb/s
Encoded date : UTC 2020-11-03 11:12:07
Writing application : mkvmerge v8.3.0 ('Over the Horizon') 64bit
Writing library : libebml v1.3.1 + libmatroska v1.4.2

Video
ID : 1
Format : AVC
Format/Info : Advanced Video Codec
Format profile : [email protected]
Format settings : CABAC / 1 Ref Frames
Format settings, CABAC : Yes
Format settings, ReFrames : 1 frame
Format settings, GOP : M=1, N=50
Codec ID : V_MPEG4/ISO/AVC
Duration : 1 h 22 min
Bit rate mode : Variable
Bit rate : 3 374 kb/s
Maximum bit rate : 3 500 kb/s
Width : 1 920 pixels
Height : 1 080 pixels
Display aspect ratio : 16:9
Frame rate mode : Constant
Frame rate : 25.000 FPS
Color space : YUV
Chroma subsampling : 4:2:0
Bit depth : 8 bits
Scan type : Progressive
Bits/(Pixel*Frame) : 0.065
Stream size : 1.95 GiB (95%)
Default : Yes
Forced : No

Audio
ID : 2
Format : AAC LC
Format/Info : Advanced Audio Codec Low Complexity
Codec ID : A_AAC-2
Duration : 1 h 22 min
Bit rate : 161 kb/s
Channel(s) : 2 channels
Channel layout : L R
Sampling rate : 48.0 kHz
Frame rate : 46.875 FPS (1024 SPF)
Compression mode : Lossy
Delay relative to video : 12 ms
Stream size : 95.4 MiB (5%)
Language : Russian
Default : Yes
Forced : No
pic pic pic pic pic pic pic pic

Этот торрент недоступен для скачивания без регистрации, однако доступен по публичной magnet-ссылке (источники с публичных трекеров). Перед использованием ссылки прочтите, пожалуйста Пользовательское соглашение, а также как можно дольше оставайтесь на раздаче! Для того, чтобы скачать сам торрент-файл (который видит больше источников), а также для того, чтобы поблагодарить релизера, вам необходимо зарегистрироваться. Если регистрироваться лень - вы можете также попробовать скачать релиз по нашим партнерским ссылкам ниже. Кроме того, зарегистрированным пользователям не показывается всплывающая реклама при скачивании.

[underver.se].t187964.torrent
Трекер: Зарегистрирован   [ 05.11.2020 18:33 ]  
Статус: проверено (by eXtatik at 05.11.2020 18:33)
Поблагодарили: пока никто не поблагодарил...
Тип торрента: публичный - доступные источники с открытых трекеров: 
Размер: 2.04 GB (занимает 0.47 DVDR, для записи нужно 1 болванка DVDR/RW)
 
 

Яндекс.Метрика powered by Sphinx


В Н И М А Н И Е
Сайт не распространяет и не хранит электронные версии произведений, а лишь бесплатно и без коммерческой выгоды (не требуя взамен платы,
SMS и т.д.) предоставляет доступ к создаваемому пользователями каталогу ссылок на торрент-файлы, которые содержат только списки хеш-сумм.
Убедительная просьба с жалобами обращаться напрямую к пользователю, разместившему торрент файл.

Вверх