Loading...
Error

Бокс. Александр Усик - Дерек Чисора + Андеркард. Full Event [31.10] [2020 г., бокс , IPTV 1080p]

Статистика раздачи
Размер:  8.99 GB   |    Зарегистрирован:  1 год 10 месяцев   |    Скачан:  0 раз

Полного источника не было: Никогда

Сидов:  0  |  0 KB/s  ]   Личеров:  0  |  0 KB/s  ]

* - сиды/пиры с внешних источников

   
 
Автор Сообщение

eXtatik Пол:Муж

05-Ноя-2020 18:37

Бокс. Александр Усик - Дерек Чисора + Андеркард. Full Event [31.10]


Название: Бокс. Александр Усик — Дерек Чисора + Андеркард
Год выхода: 2020
Жанр: Бокс

Описание:
Александр Усик — Дерек Чисора — рейтинговый профессиональный боксерский 12-раундовый поединок в тяжёлом весе за статус официального претендента на титул чемпиона мира по версии WBO. Поединок состоялся 31 октября 2020 года на Уэмбли Арене в Лондоне

Страна: Великобритания
Продолжительность: 06:06:08
Язык комментариев: Русский (Мазуров и Рязанцев)

Кодек: x.264
Качество: IPTV 1080p
Видео: AVC, 1920x1080 (16:9), 25.000 fps, 3 386 kb/s
Звук: AAC, 48.0 kHz, 2 ch, 125 kb/s

Релиз: chedder_nukakby
  • Александр Усик - Дерек Чисора
  • Ли Селби - Джордж Камбосос
  • Томми Маккарти - Билал Лаггон (бой за вакантный титул чемпиона Европы по версии EBU)
  • Саванна Маршалл - Ханна Рэнкин (бой за вакантный титул WBO в среднем весе)
  • Эми Тимлин - Карли Скелли (бой за вакантный титул Содружества в суперлегчайшем весе)
  • Рамия Али - Эва Хабмейер
General
Unique ID : 235297313310389879729147054290914173573 (0xB1049D392F89F90691DB95A11CC6E285)
Complete name : Oleksandr Usyk vs. Derek Chisora & Undercard [Full Event] 31.10.2020.mkv
Format : Matroska
Format version : Version 4
File size : 8.99 GiB
Duration : 6 h 6 min
Overall bit rate : 3 514 kb/s
Encoded date : UTC 2020-11-01 00:24:35
Writing application : mkvmerge v18.0.0 ('Apricity') 64-bit
Writing library : libebml v1.3.5 + libmatroska v1.4.8 / Lavf54.63.104

Video
ID : 1
Format : AVC
Format/Info : Advanced Video Codec
Format profile : [email protected]
Format settings : CABAC / 1 Ref Frames
Format settings, CABAC : Yes
Format settings, ReFrames : 1 frame
Codec ID : V_MPEG4/ISO/AVC
Duration : 6 h 6 min
Bit rate : 3 386 kb/s
Width : 1 920 pixels
Height : 1 080 pixels
Display aspect ratio : 16:9
Frame rate mode : Constant
Frame rate : 25.000 FPS
Color space : YUV
Chroma subsampling : 4:2:0
Bit depth : 8 bits
Scan type : Progressive
Bits/(Pixel*Frame) : 0.065
Stream size : 8.66 GiB (96%)
Default : No
Forced : No

Audio
ID : 2
Format : AAC LC
Format/Info : Advanced Audio Codec Low Complexity
Codec ID : A_AAC-2
Duration : 6 h 6 min
Bit rate : 125 kb/s
Channel(s) : 2 channels
Channel layout : L R
Sampling rate : 48.0 kHz
Frame rate : 46.875 FPS (1024 SPF)
Compression mode : Lossy
Stream size : 329 MiB (4%)
Language : Russian
Default : Yes
Forced : No
pic pic pic pic pic pic

Этот торрент недоступен для скачивания без регистрации, однако доступен по публичной magnet-ссылке (источники с публичных трекеров). Перед использованием ссылки прочтите, пожалуйста Пользовательское соглашение, а также как можно дольше оставайтесь на раздаче! Для того, чтобы скачать сам торрент-файл (который видит больше источников), а также для того, чтобы поблагодарить релизера, вам необходимо зарегистрироваться. Если регистрироваться лень - вы можете также попробовать скачать релиз по нашим партнерским ссылкам ниже. Кроме того, зарегистрированным пользователям не показывается всплывающая реклама при скачивании.

[underver.se].t187966.torrent
Трекер: Зарегистрирован   [ 05.11.2020 18:37 ]  
Статус: проверено (by eXtatik at 05.11.2020 18:37)
Поблагодарили: пока никто не поблагодарил...
Тип торрента: публичный - доступные источники с открытых трекеров: 
Размер: 8.99 GB (занимает 2.05 DVDR, для записи нужно 3 болванки DVDR/RW)
 
 

Яндекс.Метрика powered by Sphinx


В Н И М А Н И Е
Сайт не распространяет и не хранит электронные версии произведений, а лишь бесплатно и без коммерческой выгоды (не требуя взамен платы,
SMS и т.д.) предоставляет доступ к создаваемому пользователями каталогу ссылок на торрент-файлы, которые содержат только списки хеш-сумм.
Убедительная просьба с жалобами обращаться напрямую к пользователю, разместившему торрент файл.

Вверх