Loading...
Error

(Progressive Rock) Agarta - Under The Same Sky (2003) [FLAC (Tracks+.cue), lossless]

Статистика раздачи
Размер:  242 MB   |    Зарегистрирован:  1 год 10 месяцев   |    Скачан:  2 раза

Полного источника не было: 1 год 6 месяцев

Сидов:  0  |  0 KB/s  ]   Личеров:  0  |  0 KB/s  ]

* - сиды/пиры с внешних источников

   
 
Автор Сообщение

Rsa2 Пол:Муж

08-Ноя-2020 13:27

Agarta - Under The Same Sky

Жанр: Progressive Rock
Год выпуска: 2003
Носитель: CD
Производитель: Russia Starless Records ‎– 03
Аудиокодек: FLAC
Тип рипа: Tracks+.cue
Битрейт: lossless
Продолжительность: 00:40:56

Треклист:

01 Under The Same Sky 9:04
02 Seven Yards! 5:14
03 Play On Words 6:41
04 State Of Weightlessness 5:42
05 The Autumn Garden 4:57
06 Rain Architecture 5:48
07 Detonator Of The Genius 2:04
08 Loneliness 1:24
Exact Audio Copy V1.5 from 20. February 2020 

EAC extraction logfile from 8. November 2020, 18:20

Agarta / Under The Same Sky

Used drive : HL-DT-STBD-RE BH16NS60 Adapter: 1 ID: 0

Read mode : Secure
Utilize accurate stream : Yes
Defeat audio cache : No
Make use of C2 pointers : No

Read offset correction : 6
Overread into Lead-In and Lead-Out : No
Fill up missing offset samples with silence : Yes
Delete leading and trailing silent blocks : No
Null samples used in CRC calculations : Yes
Used interface : Native Win32 interface for Win NT & 2000
Gap handling : Appended to previous track

Used output format : User Defined Encoder
Selected bitrate : 896 kBit/s
Quality : High
Add ID3 tag : No
Command line compressor : C:\Program Files (x86)\Exact Audio Copy\FLAC\FLAC.EXE
Additional command line options : -6 -V -T "ARTIST=%artist%" -T "TITLE=%title%" -T "ALBUM=%albumtitle%" -T "DATE=%year%" -T "TRACKNUMBER=%tracknr%" -T "GENRE=%genre%" -T "COMMENT=%comment%" -T "BAND=%albuminterpret%" -T "ALBUMARTIST=%albuminterpret%" -T "COMPOSER=%composer%" %haslyrics%--tag-from-file=LYRICS="%lyricsfile%"%haslyrics% -T "DISCNUMBER=%cdnumber%" -T "TOTALDISCS=%totalcds%" -T "TOTALTRACKS=%numtracks%" %hascover%--picture="%coverfile%"%hascover% %source% -o %dest%

TOC of the extracted CD

Track | Start | Length | Start sector | End sector
---------------------------------------------------------
1 | 0:00.00 | 9:04.26 | 0 | 40825
2 | 9:04.26 | 5:14.05 | 40826 | 64380
3 | 14:18.31 | 6:40.70 | 64381 | 94450
4 | 20:59.26 | 5:42.59 | 94451 | 120159
5 | 26:42.10 | 4:57.14 | 120160 | 142448
6 | 31:39.24 | 5:48.05 | 142449 | 168553
7 | 37:27.29 | 2:04.51 | 168554 | 177904
8 | 39:32.05 | 1:24.03 | 177905 | 184207

Track 1

Filename D:\Cinema\Agarta\01 Under The Same Sky.wav

Pre-gap length 0:00:02.00

Peak level 99.9 %
Extraction speed 3.7 X
Track quality 100.0 %
Test CRC 4B011E7F
Copy CRC 4B011E7F
Track not present in AccurateRip database
Copy OK

Track 2

Filename D:\Cinema\Agarta\02 Seven Yards!.wav

Peak level 99.9 %
Extraction speed 4.3 X
Track quality 99.9 %
Test CRC 5CBFE151
Copy CRC 5CBFE151
Track not present in AccurateRip database
Copy OK

Track 3

Filename D:\Cinema\Agarta\03 Play On Words.wav

Peak level 99.9 %
Extraction speed 4.9 X
Track quality 100.0 %
Test CRC F7E3BD78
Copy CRC F7E3BD78
Track not present in AccurateRip database
Copy OK

Track 4

Filename D:\Cinema\Agarta\04 State Of Weightlessness.wav

Peak level 99.9 %
Extraction speed 5.4 X
Track quality 100.0 %
Test CRC C21BFA3D
Copy CRC C21BFA3D
Track not present in AccurateRip database
Copy OK

Track 5

Filename D:\Cinema\Agarta\05 The Autumn Garden.wav

Peak level 99.9 %
Extraction speed 5.7 X
Track quality 100.0 %
Test CRC 5F5674DF
Copy CRC 5F5674DF
Track not present in AccurateRip database
Copy OK

Track 6

Filename D:\Cinema\Agarta\06 Rain Architecture.wav

Peak level 99.9 %
Extraction speed 6.1 X
Track quality 100.0 %
Test CRC CB5D926C
Copy CRC CB5D926C
Track not present in AccurateRip database
Copy OK

Track 7

Filename D:\Cinema\Agarta\07 Detonator Of The Genius.wav

Peak level 99.9 %
Extraction speed 6.3 X
Track quality 100.0 %
Test CRC F7E1D80D
Copy CRC F7E1D80D
Track not present in AccurateRip database
Copy OK

Track 8

Filename D:\Cinema\Agarta\08 Loneliness.wav

Peak level 100.0 %
Extraction speed 6.4 X
Track quality 100.0 %
Test CRC 53EAD63A
Copy CRC 53EAD63A
Track not present in AccurateRip database
Copy OK

None of the tracks are present in the AccurateRip database

No errors occurred

End of status report

---- CUETools DB Plugin V2.1.6

[CTDB TOCID: V_r500j5hRThVgfRPQf2bWVD7H8-] found
Submit result: V_r500j5hRThVgfRPQf2bWVD7H8- has been confirmed
Track | CTDB Status
1 | (1/1) Accurately ripped
2 | (1/1) Accurately ripped
3 | (1/1) Accurately ripped
4 | (1/1) Accurately ripped
5 | (1/1) Accurately ripped
6 | (1/1) Accurately ripped
7 | (1/1) Accurately ripped
8 | (1/1) Accurately ripped

==== Log checksum D452CA207F91704053516B037F208C4438DD72FF69404B8FEE401424406A6A3E ====
REM GENRE "Progressive Rock" 
REM DATE 2003
REM DISCID 60099808
REM COMMENT "ExactAudioCopy v1.5"
PERFORMER "Agarta"
TITLE "Under The Same Sky"
REM COMPOSER ""
FILE "01 Under The Same Sky.wav" WAVE
TRACK 01 AUDIO
TITLE "Under The Same Sky"
PERFORMER "Agarta"
REM COMPOSER ""
INDEX 01 00:00:00
FILE "02 Seven Yards!.wav" WAVE
TRACK 02 AUDIO
TITLE "Seven Yards!"
PERFORMER "Agarta"
REM COMPOSER ""
INDEX 01 00:00:00
FILE "03 Play On Words.wav" WAVE
TRACK 03 AUDIO
TITLE "Play On Words"
PERFORMER "Agarta"
REM COMPOSER ""
INDEX 01 00:00:00
FILE "04 State Of Weightlessness.wav" WAVE
TRACK 04 AUDIO
TITLE "State Of Weightlessness"
PERFORMER "Agarta"
REM COMPOSER ""
INDEX 01 00:00:00
FILE "05 The Autumn Garden.wav" WAVE
TRACK 05 AUDIO
TITLE "The Autumn Garden"
PERFORMER "Agarta"
REM COMPOSER ""
INDEX 01 00:00:00
FILE "06 Rain Architecture.wav" WAVE
TRACK 06 AUDIO
TITLE "Rain Architecture "
PERFORMER "Agarta"
REM COMPOSER ""
INDEX 01 00:00:00
FILE "07 Detonator Of The Genius.wav" WAVE
TRACK 07 AUDIO
TITLE "Detonator Of The Genius"
PERFORMER "Agarta"
REM COMPOSER ""
INDEX 01 00:00:00
FILE "08 Loneliness.wav" WAVE
TRACK 08 AUDIO
TITLE "Loneliness "
PERFORMER "Agarta"
REM COMPOSER ""
INDEX 01 00:00:00

Этот торрент недоступен для скачивания без регистрации, однако доступен по публичной magnet-ссылке (источники с публичных трекеров). Перед использованием ссылки прочтите, пожалуйста Пользовательское соглашение, а также как можно дольше оставайтесь на раздаче! Для того, чтобы скачать сам торрент-файл (который видит больше источников), а также для того, чтобы поблагодарить релизера, вам необходимо зарегистрироваться. Если регистрироваться лень - вы можете также попробовать скачать релиз по нашим партнерским ссылкам ниже. Кроме того, зарегистрированным пользователям не показывается всплывающая реклама при скачивании.

[underver.se].t188363.torrent
Трекер: Зарегистрирован   [ 08.11.2020 13:27 ]  
Статус: проверено (by Бишеп at 08.11.2020 14:27)
Поблагодарили: пока никто не поблагодарил...
Тип торрента: публичный - доступные источники с открытых трекеров: 
Размер: 242 MB (занимает 0.05 DVDR, для записи нужно 1 болванка DVDR/RW)
 
 

PsychoDale21Пол:Муж

01-Дек-2021 19:56

Позвольте скачать пожалуйста

Яндекс.Метрика powered by Sphinx


В Н И М А Н И Е
Сайт не распространяет и не хранит электронные версии произведений, а лишь бесплатно и без коммерческой выгоды (не требуя взамен платы,
SMS и т.д.) предоставляет доступ к создаваемому пользователями каталогу ссылок на торрент-файлы, которые содержат только списки хеш-сумм.
Убедительная просьба с жалобами обращаться напрямую к пользователю, разместившему торрент файл.

Вверх