Loading...
Error

Джиу-джитсу: Битва за Землю / Jiu Jitsu (Димитри Логотетис) [2020 г., боевик, фантастика, WEB-DL 1080p] DVO (@MUZOBOZ@)

Статистика раздачи
Размер:  5,25 GB   |    Зарегистрирован:  6 дней   |    Скачан:  11 раз
Сидов:  1  |  0 KB/s  ]   Личеров:  0  |  0 KB/s  ]

* - сиды/пиры с внешних источников

   
 
Автор Сообщение

makkol Пол:Муж

21-Ноя-2020 21:41

Джиу-джитсу: Битва за Землю / Jiu Jitsu


Год выпуска: 2020
Жанр: боевик, фантастика
Производство: США [Acme Rocket Fuel, Green Olive Films]
Режиссер: Димитри Логотетис
В ролях: Николас Кейдж, Мари Авгеропулос, Фрэнк Грилло, Тони Джа, Рик Юн, Жужу Чан, Ален Мусси, Эдди Стиплз, Маррезе Крамп, Том Уокер
Сюжет фильма:
Каждые шесть лет древний орден мастеров джиу-джитсу сражается за Землю с расой безжалостных пришельцев из космоса. Так было тысячи лет, пока ветеран Джейк Барнс не потерпел поражение, и безопасность человечества оказалась под угрозой. Побитого и потерявшего сознание Джейка находят Уайли, Кюн и Харриган. Вместе они должны помочь Джейку набраться сил и остановить пришельца Бракса.

  • Мировая премьера: 20 ноября 2020


Качество видео: WEB-DL 1080p

Продолжительность: 01:42:03
Формат: MKV
Видео: MPEG-4 AVC, 1916x800 (2.40:1), 23.976 fps, 7110 kbps
Аудио: русский, любительский двухголосый закадровый (@MUZOBOZ@), AC3 2.0, 48 kHz, 256 kbps

Код:

Общее
Уникальный идентификатор                 : 253580536709274391326300263657653803927 (0xBEC5D5BBC22F1C9883C6E925B7221B97)
Полное имя                               : Jiu Jitsu.2020.WEB-DL.1080p.mkv
Формат                                   : Matroska
Версия формата                           : Version 4
Размер файла                             : 5,25 Гбайт
Продолжительность                        : 1 ч. 42 м.
Режим общего битрейта                    : Переменный
Общий поток                              : 7368 Кбит/сек
Дата кодирования                         : UTC 2020-11-18 13:31:29
Программа кодирования                    : mkvmerge v8.3.0 ('Over the Horizon') 64bit
Библиотека кодирования                   : libebml v1.3.1 + libmatroska v1.4.2

Видео
Идентификатор                            : 1
Формат                                   : AVC
Формат/Информация                        : Advanced Video Codec
Профиль формата                          : High@L4.1
Настройки формата                        : CABAC / 4 Ref Frames
Параметр CABAC формата                   : Да
Параметр RefFrames формата               : 4 кадра
Идентификатор кодека                     : V_MPEG4/ISO/AVC
Продолжительность                        : 1 ч. 42 м.
Вид битрейта                             : Переменный
Битрейт                                  : 7110 Кбит/сек
Номинальный битрейт                      : 8000 Кбит/сек
Максимальный битрейт                     : 8000 Кбит/сек
Ширина                                   : 1916 пикселей
Ширина оригинала                         : 1916 пикселей
Высота                                   : 800 пикселей
Высота оригинала                         : 800 пикселей
Соотношение сторон                       : 2,40:1
Режим частоты кадров                     : Постоянный
Частота кадров                           : 23,976 (24000/1001) кадра/сек
Стандарт вещания                         : Component
Цветовое пространство                    : YUV
Субдискретизация насыщенности            : 4:2:0
Битовая глубина                          : 8 бит
Тип развёртки                            : Прогрессивная / Progressive
Бит/(Пиксели*Кадры)                      : 0.193
Размер потока                            : 5,07 Гбайт (96%)
Библиотека кодирования                   : x264 / x264 core 155
Настройки программы                      : cabac=1 / ref=4 / deblock=1:0:0 / analyse=0x3:0x3 / me=dia / subme=1 / psy=1 / psy_rd=1.00:0.00 / mixed_ref=0 / me_range=16 / chroma_me=1 / trellis=0 / 8x8dct=1 / cqm=1 / deadzone=21,11 / fast_pskip=1 / chroma_qp_offset=0 / threads=25 / lookahead_threads=4 / sliced_threads=0 / slices=1 / nr=0 / decimate=1 / interlaced=0 / minigop=0 / stitchable=1 / constrained_intra=0 / bframes=2 / b_pyramid=0 / b_adapt=0 / b_bias=0 / direct=1 / weightb=1 / open_gop=1 / weightp=0 / keyint=240 / keyint_min=23 / scenecut=40 / intra_refresh=0 / rc_lookahead=0 / rc=cbr / mbtree=0 / bitrate=8000 / ratetol=1.0 / qcomp=0.60 / qpmin=1 / qpmax=69 / qpstep=4 / vbv_maxrate=8000 / vbv_bufsize=8000 / nal_hrd=vbr / filler=0 / ip_ratio=1.40 / pb_ratio=1.30 / aq=1:1.00 / cabac=1 / ref=4 / deblock=1:0:0 / analyse=0x3:0x3 / me=dia / subme=1 / psy=1 / psy_rd=1.00:0.00 / mixed_ref=0 / me_range=16 / chroma_me=1 / trellis=0 / 8x8dct=1 / cqm=1 / deadzone=21,11 / fast_pskip=1 / chroma_qp_offset=0 / threads=25 / lookahead_threads=4 / sliced_threads=0 / slices=1 / nr=0 / decimate=1 / interlaced=0 / minigop=0 / stitchable=1 / constrained_intra=0 / bframes=2 / b_pyramid=0 / b_adapt=0 / b_bias=0 / direct=1 / weightb=1 / open_gop=1 / weightp=0 / keyint=240 / keyint_min=23 / scenecut=40 / intra_refresh=0 / rc_lookahead=0 / rc=cbr / mbtree=0 / bitrate=8000 / ratetol=1.0 / qcomp=0.60 / qpmin=1 / qpmax=69 / qpstep=4 / vbv_maxrate=8000 / vbv_bufsize=8000 / nal_hrd=vbr / filler=0 / ip_ratio=1.40 / pb_ratio=1.30 / aq=1:1.00
Default                                  : Да
Forced                                   : Нет
Цветовой диапазон                        : Limited
Основные цвета                           : BT.709
Характеристики трансфера                 : BT.709
Коэффициенты матрицы                     : BT.709

Аудио
Идентификатор                            : 2
Формат                                   : AC-3
Формат/Информация                        : Audio Coding 3
Коммерческое название                    : Dolby Digital
Идентификатор кодека                     : A_AC3
Продолжительность                        : 1 ч. 42 м.
Вид битрейта                             : Постоянный
Битрейт                                  : 256 Кбит/сек
Каналы                                   : 2 канала
Channel layout                           : L R
Частота                                  : 48,0 КГц
Частота кадров                           : 31,250 кадров/сек (1536 SPF)
Битовая глубина                          : 16 бит
Метод сжатия                             : С потерями
Задержка видео                           : -5 мс.
Размер потока                            : 187 Мбайт (3%)
ServiceKind/String                       : Complete Main
Default                                  : Да
Forced                                   : Нет

Этот торрент недоступен для скачивания без регистрации, однако доступен по публичной magnet-ссылке (источники с публичных трекеров). Перед использованием ссылки прочтите, пожалуйста Пользовательское соглашение, а также как можно дольше оставайтесь на раздаче! Для того, чтобы скачать сам торрент-файл (который видит больше источников), а также для того, чтобы поблагодарить релизера, вам необходимо зарегистрироваться. Если регистрироваться лень - вы можете также попробовать скачать релиз по нашим партнерским ссылкам ниже. Кроме того, зарегистрированным пользователям не показывается всплывающая реклама при скачивании.

[underver.se].t189824.torrent
Трекер: Зарегистрирован   [ 21.11.2020 21:41 ]  

Статус: T временная (by makkol at 21.11.2020 21:42)
Поблагодарили: пока никто не поблагодарил...
Тип торрента: публичный - доступные источники с открытых трекеров: 
Размер: 5,25 GB (занимает 1,2 DVDR, для записи нужно 2 болванки DVDR/RW)
 
 
Похожие темы
Форум Тема Автор Торрент Отв. Посл. сооб.
T Зарубежное кино [DVDRip, Low-Res HDRip, и т.д.] Джиу-джитсу: Битва за Землю / Jiu Jitsu (Димитри Логотетис) [2020 г., боевик, фантастика, WEB-DLRip] DVO (@MUZOBOZ@) makkol
404 | 8

0 | 227

8

21.11.2020 21:36

* Зарубежное кино [DVDRip, Low-Res HDRip, и т.д.] Джиу-джитсу: Битва за Землю / Jiu Jitsu (Димитри Логотетис) [2020 г., боевик, фантастика, WEB-DLRip-AVC] Dub (iTunes) + Sub (Rus, Eng) 90ytr90
180 | 9

0 | 97

5

24.11.2020 06:01

Зарубежное кино [DVDRip, Low-Res HDRip, и т.д.] Джиу-джитсу: Битва за Землю / Jiu Jitsu (Димитри Логотетис / Dimitri Logothetis) [2020 г., боевик, фантастика, WEB-DLRip] VO (feofanio) + Original (Eng) + Sub (Rus, Eng) 90ytr90
106 | 0

0 | 187

5

22.11.2020 19:43

* Зарубежное кино [DVDRip, Low-Res HDRip, и т.д.] Джиу-джитсу: Битва за Землю / Jiu Jitsu (Димитри Логотетис / Dimitri Logothetis) [2020 г., боевик, фантастика, WEB-DLRip] Dub (iTunes) 90ytr90
1107 | 40

0 | 152

3

23.11.2020 23:05

* Зарубежное кино [HDDVDRip / BDRip / WEB-DL / HDTV 1080/720р] Джиу-джитсу: Битва за Землю / Jiu Jitsu (Димитри Логотетис / Dimitri Logothetis) [2020 г., боевик, фантастика, WEB-DL 1080p] Dub (iTunes) + Original (Eng) + Sub (Rus, Eng) 90ytr90
1013 | 109

0 | 181

13

23.11.2020 23:04


Яндекс.Метрика powered by Sphinx


В Н И М А Н И Е
Сайт не распространяет и не хранит электронные версии произведений, а лишь бесплатно и без коммерческой выгоды (не требуя взамен платы,
SMS и т.д.) предоставляет доступ к создаваемому пользователями каталогу ссылок на торрент-файлы, которые содержат только списки хеш-сумм.
Убедительная просьба с жалобами обращаться напрямую к пользователю, разместившему торрент файл.

Вверх