Loading...
Error

Ваша честь / Your Honor / Сезон: 1 / Серии: 1-10 из 10 (Эдвард Бергер) [2020 г., триллер, драма, криминал, WEB-DL 1080p] MVO (LostFilm) + Original (Eng) + Sub (Rus, Eng)

Статистика раздачи
Размер:  24,17 GB   |    Зарегистрирован:  1 месяц 22 дня   |    Скачан:  7 раз
Сидов:  2  |  465 KB/s  ]   Личеров:  0  |  0 KB/s  ]

* - сиды/пиры с внешних источников

   
 
Автор Сообщение

eXtatik Пол:Муж

16-Фев-2021 13:50

Ваша честь / Your Honor [S01]

Страна: США / CBS Television Studios, ed World
Год выпуска: 2020
Жанр: триллер, драма, криминал
Продолжительность: ~00:57:00серия
Озвучивание: профессиональное (многоголосое закадровое) [LostFilm]
Режиссёр: Эдвард Бергер

В ролях:
    Брайан Крэнстон, Хантер Дуэн, Майкл Стулбарг, Хоуп Дэвис, София Блэк-Д’Элиа, Исайя Уитлок мл., Тони Карран, Лилли Кэй, Кармен Эджого, Бенжамин Флорес мл.


Сюжет:
    «Ваша честь» — мини-сериал канала Showtime, обреченный на успех сразу по нескольким причинам. Во-первых, это судебная драма о тонкостях, брешах и этических дилеммах юридической сферы от знатока жанра Питера Моффата («Однажды ночью») . Во-вторых, к производству сериала приложила руку известная в Голливуде семейная пара, Роберт и Мишель Кинги, вдоль и поперек изучившая самые запутанные юридические кейсы в своем проекте «Хорошая жена». Наконец, это триумфальное возвращение мощного Брайана Крэнстона на телевидение после завершения легендарной драмы «Во все тяжкие». Напряженный и тягучий сериал «Ваша честь» сталкивает понятия долга и родительской любви, вскрывает проблемные места судебной системы и во всей уродливости показывает ее несправедливость по отношению к разным социальным слоям. В основе проекта — ужасающая человеческая история, в ходе которой нам задают вопрос «На что ты готов пойти ради защиты ребенка?». Разыграть этот сложный конфликт вместе с Брайаном Крэнстоном выпало еще одному блестящему актеру Майклу Стулбаргу («Фарго», «Серьезный человек») .

    Несмотря на связи отца, уважаемого и влиятельного в Новом Орлеане судьи, Адам Десиато (Хантер Дуэн) вовсе не мажор, родившийся с серебряной ложкой во рту. Он вежлив с соседями, ездит на подержанном авто и обожает своего пса Джанго. А еще юноша крайне болезненно переживает смерть матери. В годовщину ее гибели он приезжает в неблагополучный район, дабы почтить ее память, и тут же попадает в неприятности. Преследуемый бандой из гетто, Адам поспешно уезжает и, набрав скорость, не замечает летящего к нему на всех парах парнишку на мотоцикле. Происходит столкновение, и тинейджера отбрасывает на мостовую. Несчастный юноша, захлебываясь кровью, умирает в жутких конвульсиях, а запаниковавший Адам скрывается с места аварии, не дожидаясь полиции. Его отец, судья Майкл Десиато (Брайан Крэнстон), сам славится непредвзятостью и достойной работой в своем чине, а потому, хоть и разбитый трагедией, соглашается помочь сыну сделать правильный выбор. Вместе они решают поехать в полицейский участок с чистосердечным признанием, но на месте судья узнает, кто именно стал жертвой Адама. Под его колесами погиб сын Джимми Бакстера (Майкл Стулбарг) — самого опасного криминального авторитета во всем Новом Орлеане. Прекрасно понимая, что справедливость Адаму не светит, а Бакстер ни перед чем не остановится, пока не отомстит, Майкл берется покрывать своего ребенка. С этой лжи начинается настоящая война двух авторитетов по обе стороны закона. Пока Джимми и Майкл будут дергать за ниточки, вовлекая в паутину манипуляций все больше невинных людей, их родным придется страдать от угрызений совести и гнета обстоятельств. В этой истории не может быть победителей и проигравших — только кровь и новые трагедии…

             
Качество видео: WEB-DL 1080p | Your.Honor.US.S01.1080p.AMZN.WEB-DLRip.DDP5.1.x264-NTb
Формат: MKV
Видео: AVC, 1920x1080 (16:9), 6196 kbps, 23.976 (24000/1001) fps, 0.125 bit/pixel
Аудио #1: AC3, 384 kbps, 2 ch, 48 kHz, русский, профессиональный (многоголосый закадровый) (LostFilm)
Аудио #2: E-AC3, 640 kbps, 6 ch, 48 kHz, английский, оригинал
Субтитры: Russian, English (SDH)
General
Unique ID : 312408029133584732752902823140615601617 (0xEB07990A91F2BC2607F50F1646A53DD1)
Complete name : Your.Honor.US.S01E01.Part.One.mkv
Format : Matroska
Format version : Version 4
File size : 2.87 GiB
Duration : 56 min 55 s
Overall bit rate : 7 222 kb/s
Encoded date : UTC 2020-12-09 19:32:13
Writing application : mkvmerge v51.0.0 ('I Wish') 64-bit
Writing library : libebml v1.4.0 + libmatroska v1.6.2

Video
ID : 1
Format : AVC
Format/Info : Advanced Video Codec
Format profile : High@L4
Format settings : CABAC / 4 Ref Frames
Format settings, CABAC : Yes
Format settings, Reference fra : 4 frames
Codec ID : V_MPEG4/ISO/AVC
Duration : 56 min 55 s
Bit rate mode : Constant
Bit rate : 6 196 kb/s
Nominal bit rate : 10 000 kb/s
Width : 1 920 pixels
Height : 1 080 pixels
Display aspect ratio : 16:9
Frame rate mode : Constant
Frame rate : 23.976 (24000/1001) FPS
Color space : YUV
Chroma subsampling : 4:2:0
Bit depth : 8 bits
Scan type : Progressive
Bits/(Pixel*Frame) : 0.125
Stream size : 2.46 GiB (86%)
Default : Yes
Forced : No
Color range : Limited
Color primaries : BT.709
Transfer characteristics : BT.709
Matrix coefficients : BT.709

Audio #1
ID : 2
Format : AC-3
Format/Info : Audio Coding 3
Commercial name : Dolby Digital
Codec ID : A_AC3
Duration : 56 min 55 s
Bit rate mode : Constant
Bit rate : 384 kb/s
Channel(s) : 2 channels
Channel layout : L R
Sampling rate : 48.0 kHz
Frame rate : 31.250 FPS (1536 SPF)
Compression mode : Lossy
Stream size : 156 MiB (5%)
Language : Russian
Service kind : Complete Main
Default : Yes
Forced : No

Audio #2
ID : 3
Format : E-AC-3
Format/Info : Enhanced AC-3
Commercial name : Dolby Digital Plus
Codec ID : A_EAC3
Duration : 56 min 55 s
Bit rate mode : Constant
Bit rate : 640 kb/s
Channel(s) : 6 channels
Channel layout : L R C LFE Ls Rs
Sampling rate : 48.0 kHz
Frame rate : 31.250 FPS (1536 SPF)
Compression mode : Lossy
Delay relative to video : 18 ms
Stream size : 261 MiB (9%)
Language : English
Service kind : Complete Main
Default : No
Forced : No

Text #1
ID : 4
Format : UTF-8
Codec ID : S_TEXT/UTF8
Codec ID/Info : UTF-8 Plain Text
Duration : 52 min 26 s
Bit rate : 43 b/s
Count of elements : 384
Stream size : 16.6 KiB (0%)
Language : Russian
Default : No
Forced : No

Text #2
ID : 5
Format : UTF-8
Codec ID : S_TEXT/UTF8
Codec ID/Info : UTF-8 Plain Text
Duration : 52 min 42 s
Bit rate : 50 b/s
Count of elements : 562
Stream size : 19.4 KiB (0%)
Title : SDH
Language : English
Default : No
Forced : No
pic pic pic pic pic pic pic pic

Этот торрент недоступен для скачивания без регистрации, однако доступен по публичной magnet-ссылке (источники с публичных трекеров). Перед использованием ссылки прочтите, пожалуйста Пользовательское соглашение, а также как можно дольше оставайтесь на раздаче! Для того, чтобы скачать сам торрент-файл (который видит больше источников), а также для того, чтобы поблагодарить релизера, вам необходимо зарегистрироваться. Если регистрироваться лень - вы можете также попробовать скачать релиз по нашим партнерским ссылкам ниже. Кроме того, зарегистрированным пользователям не показывается всплывающая реклама при скачивании.

[underver.se].t199525.torrent
Трекер: Зарегистрирован   [ 16.02.2021 13:50 ]  

Статус: проверено (by eXtatik at 16.02.2021 17:06)
Поблагодарили: пока никто не поблагодарил...
Тип торрента: публичный - доступные источники с открытых трекеров: 
Размер: 24,17 GB (занимает 5,52 DVDR, для записи нужно 6 болванок DVDR/RW)
 
 
Похожие темы
Форум Тема Автор Торрент Отв. Посл. сооб.
T Зарубежные сериалы Ваша честь / Your Honor [серии 01-06 (10)] (Эдвард Бергер / Edward Berger) [2020 г., триллер, драма, криминал, WEB-DLRip] MVO (Novamedia) 90ytr90
9 | 2

0 | 976

7

21.12.2020 22:33

Зарубежные сериалы [BD / Remux / BDRip / WEB-DL / HDTV 1080/720р] Ваша честь / Your Honor [серии 01-10 (10)] (Эдвард Бергер / Edward Berger) [2020 г., триллер, драма, криминал, WEB-DL 1080p] MVO (HDRezka Studio) + Original (Eng) + Sub (Rus, Eng) 90ytr90
10 | 1

0 | 1000

4

26.12.2020 06:43

T Зарубежные сериалы [BD / Remux / BDRip / WEB-DL / HDTV 1080/720р] Ваша честь / Your Honor [серии 01-09 (10)] (Эдвард Бергер / Edward Berger) [2020 г., триллер, драма, криминал, WEB-DL 1080p] MVO (Novamedia) + Original (Eng) + Sub (Rus, Eng) 90ytr90
9 | 4

0 | 898

1

08.12.2020 15:59

Зарубежные сериалы [BD / Remux / BDRip / WEB-DL / HDTV 1080/720р] Ваша честь / Your Honor (Сезон 1 , Серия 1-10 из 10 ) (Эдвард Бергер) [2020, Триллер, драма, криминал, ремейк,WEB-DLRip - HEVC - 1080p] [LostFilm +HDRezka+Novamedia+DniproFilm+ Eng]+[Subs Rus , ENG] Nikolai.Baranov
0 | 1

2 | 3155

2

25.01.2021 04:51

Зарубежные сериалы [BD / Remux / BDRip / WEB-DL / HDTV 1080/720р] Ваша честь / Your Honor / Сезон: 1 / Серии: 1-10 из 10 (Эдвард Бергер) [2020 г., триллер, драма, криминал, WEB-DL 720р] MVO (LostFilm) + Original (Eng) + Sub (Eng) eXtatik
62 | 19

0 | 545

15

16.02.2021 13:55


Яндекс.Метрика powered by Sphinx


В Н И М А Н И Е
Сайт не распространяет и не хранит электронные версии произведений, а лишь бесплатно и без коммерческой выгоды (не требуя взамен платы,
SMS и т.д.) предоставляет доступ к создаваемому пользователями каталогу ссылок на торрент-файлы, которые содержат только списки хеш-сумм.
Убедительная просьба с жалобами обращаться напрямую к пользователю, разместившему торрент файл.

Вверх