Loading...
Error

(Rock) Дубы-колдуны - Не повторяется такое никогда? (1996) [FLAC (Image+.CUE), Lossless]

Статистика раздачи
Размер:  340 MB   |    Зарегистрирован:  1 год 6 месяцев   |    Скачан:  16 раз

Полного источника не было: 6 месяцев

Сидов:  0  |  0 KB/s  ]   Личеров:  0  |  0 KB/s  ]

* - сиды/пиры с внешних источников

   
 
Автор Сообщение

Бишеп Пол:Муж

06-Мар-2021 15:28

Дубы-колдуны - Не повторяется такое никогда?

Жанр: Rock
Год выпуска: 1996
Носитель: CD
Производитель диска: DDT Records - BD 777
Аудиокодек: FLAC
Тип рипа: Image+.CUE
Битрейт аудио: lossless
Продолжительность: 00:46:29


Треклист:
01. Пролог (00:37)
02. Дикие гитары (02:40)
03. Песенка велосипедистов (02:24)
04. Клён (03:21)
05. Мой адрес - Советский Союз (03:22)
06. Расставания (03:10)
07. Солнце взойдёт (03:51)
08. Апачи (Индейские дубы) (03:27)
09. У нас, молодых (02:39)
10. Бессонница (Ветер северный) (02:13)
11. Не надо печалиться (02:47)
12. Увезу тебя я в тундру (02:45)
13. Неприметная красота (02:46)
14. Школьное окно (04:04)
15. Начало (Цыганские колдуны) (01:54)
16. Эпилог (01:07)
17. Soundtrack видеоклипа "Клён" (03:21)

Exact Audio Copy V1.1 from 23. June 2015 

EAC extraction logfile from 20. September 2017, 2:46

Дубы-колдуны / Не повторяется такое никогда? [BD 777]

Used drive : TSSTcorpDVD+-RW SU-208GB Adapter: 1 ID: 0

Read mode : Secure
Utilize accurate stream : Yes
Defeat audio cache : Yes
Make use of C2 pointers : No

Read offset correction : 6
Overread into Lead-In and Lead-Out : No
Fill up missing offset samples with silence : Yes
Delete leading and trailing silent blocks : No
Null samples used in CRC calculations : Yes
Used interface : Native Win32 interface for Win NT & 2000

Used output format : Internal WAV Routines
Sample format : 44.100 Hz; 16 Bit; Stereo

TOC of the extracted CD

Track | Start | Length | Start sector | End sector
---------------------------------------------------------
1 | 0:00.18 | 0:36.70 | 18 | 2787
2 | 0:37.13 | 2:40.00 | 2788 | 14787
3 | 3:17.13 | 2:24.20 | 14788 | 25607
4 | 5:41.33 | 3:20.72 | 25608 | 40679
5 | 9:02.30 | 3:22.28 | 40680 | 55857
6 | 12:24.58 | 3:10.35 | 55858 | 70142
7 | 15:35.18 | 3:51.10 | 70143 | 87477
8 | 19:26.28 | 3:27.15 | 87478 | 103017
9 | 22:53.43 | 2:38.55 | 103018 | 114922
10 | 25:32.23 | 2:12.67 | 114923 | 124889
11 | 27:45.15 | 2:47.25 | 124890 | 137439
12 | 30:32.40 | 2:44.55 | 137440 | 149794
13 | 33:17.20 | 2:45.70 | 149795 | 162239
14 | 36:03.15 | 4:04.05 | 162240 | 180544
15 | 40:07.20 | 1:54.13 | 180545 | 189107
16 | 42:01.33 | 1:07.15 | 189108 | 194147
17 | 43:08.48 | 3:20.47 | 194148 | 209194

Range status and errors

Selected range

Filename D:\Дубы-колдуны - Не повторяется такое никогда [BD 777].wav

Peak level 66.2 %
Extraction speed 4.0 X
Range quality 100.0 %
Test CRC CC40E132
Copy CRC CC40E132
Copy OK

No errors occurred

AccurateRip summary
Track 1 accurately ripped (confidence 5) [91A0A0F3] (AR v1)
Track 2 accurately ripped (confidence 5) [5409323D] (AR v1)
Track 3 accurately ripped (confidence 5) [0EE80624] (AR v1)
Track 4 accurately ripped (confidence 5) [F571A42E] (AR v1)
Track 5 accurately ripped (confidence 5) [D7EE3EB2] (AR v1)
Track 6 accurately ripped (confidence 4) [9A2CEF17] (AR v1)
Track 7 accurately ripped (confidence 2) [B9CFD219] (AR v1)
Track 8 accurately ripped (confidence 2) [AC043E69] (AR v1)
Track 9 accurately ripped (confidence 2) [31363933] (AR v1)
Track 10 accurately ripped (confidence 2) [1477E6AB] (AR v1)
Track 11 accurately ripped (confidence 4) [64F68EF1] (AR v1)
Track 12 accurately ripped (confidence 4) [CC0DDA7C] (AR v1)
Track 13 accurately ripped (confidence 4) [2678E82E] (AR v1)
Track 14 accurately ripped (confidence 4) [63A1EE08] (AR v1)
Track 15 accurately ripped (confidence 4) [8E0344CD] (AR v1)
Track 16 accurately ripped (confidence 4) [0681D622] (AR v1)
Track 17 accurately ripped (confidence 4) [42025B84] (AR v1)
All tracks accurately ripped

End of status report

---- CUETools DB Plugin V2.1.6

[CTDB TOCID: 5cleddkOpy9PrUq1lctykRBdM2s-] found
Submit result: 5cleddkOpy9PrUq1lctykRBdM2s- has been confirmed
Track | CTDB Status
1 | (3/3) Accurately ripped
2 | (3/3) Accurately ripped
3 | (3/3) Accurately ripped
4 | (3/3) Accurately ripped
5 | (3/3) Accurately ripped
6 | (3/3) Accurately ripped
7 | (3/3) Accurately ripped
8 | (3/3) Accurately ripped
9 | (3/3) Accurately ripped
10 | (3/3) Accurately ripped
11 | (3/3) Accurately ripped
12 | (3/3) Accurately ripped
13 | (3/3) Accurately ripped
14 | (3/3) Accurately ripped
15 | (3/3) Accurately ripped
16 | (3/3) Accurately ripped
17 | (3/3) Accurately ripped

==== Log checksum 0E43F5FBA3485C5091E22DE7D3E4AEA10DB1557426E5BDB4BCD5921C71EA2A1D ====
REM GENRE Rock 
REM DATE 1995
REM DISCID 030AE511
REM COMMENT "ExactAudioCopy v1.1"
PERFORMER "Дубы-колдуны"
TITLE "Не повторяется такое никогда? [BD 777]"
FILE "Дубы-колдуны - Не повторяется такое никогда [BD 777].flac" WAVE
TRACK 01 AUDIO
TITLE "Пролог"
PERFORMER "Дубы-колдуны"
INDEX 00 00:00:00
INDEX 01 00:00:18
TRACK 02 AUDIO
TITLE "Дикие гитары"
PERFORMER "Дубы-колдуны"
INDEX 00 00:37:08
INDEX 01 00:37:13
TRACK 03 AUDIO
TITLE "Песенка велосипедистов"
PERFORMER "Дубы-колдуны"
INDEX 00 03:17:08
INDEX 01 03:17:13
TRACK 04 AUDIO
TITLE "Клён"
PERFORMER "Дубы-колдуны"
INDEX 00 05:41:30
INDEX 01 05:41:33
TRACK 05 AUDIO
TITLE "Мой адрес - Советский Союз"
PERFORMER "Дубы-колдуны"
INDEX 00 09:02:28
INDEX 01 09:02:30
TRACK 06 AUDIO
TITLE "Расставания"
PERFORMER "Дубы-колдуны"
INDEX 00 12:24:55
INDEX 01 12:24:58
TRACK 07 AUDIO
TITLE "Солнце взойдёт"
PERFORMER "Дубы-колдуны"
INDEX 00 15:35:13
INDEX 01 15:35:18
TRACK 08 AUDIO
TITLE "Апачи (Индейские дубы)"
PERFORMER "Дубы-колдуны"
INDEX 00 19:26:25
INDEX 01 19:26:28
TRACK 09 AUDIO
TITLE "У нас, молодых"
PERFORMER "Дубы-колдуны"
INDEX 00 22:53:40
INDEX 01 22:53:43
TRACK 10 AUDIO
TITLE "Бессонница (Ветер северный)"
PERFORMER "Дубы-колдуны"
INDEX 00 25:32:20
INDEX 01 25:32:23
TRACK 11 AUDIO
TITLE "Не надо печалиться"
PERFORMER "Дубы-колдуны"
INDEX 00 27:45:13
INDEX 01 27:45:15
TRACK 12 AUDIO
TITLE "Увезу тебя я в тундру"
PERFORMER "Дубы-колдуны"
INDEX 00 30:32:38
INDEX 01 30:32:40
TRACK 13 AUDIO
TITLE "Неприметная красота"
PERFORMER "Дубы-колдуны"
INDEX 00 33:17:18
INDEX 01 33:17:20
TRACK 14 AUDIO
TITLE "Школьное окно"
PERFORMER "Дубы-колдуны"
INDEX 00 36:03:13
INDEX 01 36:03:15
TRACK 15 AUDIO
TITLE "Начало (Цыганские колдуны)"
PERFORMER "Дубы-колдуны"
INDEX 00 40:07:18
INDEX 01 40:07:20
TRACK 16 AUDIO
TITLE "Эпилог"
PERFORMER "Дубы-колдуны"
INDEX 00 42:01:30
INDEX 01 42:01:33
TRACK 17 AUDIO
TITLE "Soundtrack видеоклипа ''Клён''"
PERFORMER "Дубы-колдуны"
INDEX 00 43:08:43
INDEX 01 43:08:48

Этот торрент недоступен для скачивания без регистрации, однако доступен по публичной magnet-ссылке (источники с публичных трекеров). Перед использованием ссылки прочтите, пожалуйста Пользовательское соглашение, а также как можно дольше оставайтесь на раздаче! Для того, чтобы скачать сам торрент-файл (который видит больше источников), а также для того, чтобы поблагодарить релизера, вам необходимо зарегистрироваться. Если регистрироваться лень - вы можете также попробовать скачать релиз по нашим партнерским ссылкам ниже. Кроме того, зарегистрированным пользователям не показывается всплывающая реклама при скачивании.

[underver.se].t201415.torrent
Трекер: Зарегистрирован   [ 06.03.2021 15:28 ]  
Статус: проверено (by Бишеп at 06.03.2021 15:29)
Поблагодарили: пока никто не поблагодарил...
Тип торрента: публичный - доступные источники с открытых трекеров: 
Размер: 340 MB (занимает 0.08 DVDR, для записи нужно 1 болванка DVDR/RW)
 
 

Яндекс.Метрика powered by Sphinx


В Н И М А Н И Е
Сайт не распространяет и не хранит электронные версии произведений, а лишь бесплатно и без коммерческой выгоды (не требуя взамен платы,
SMS и т.д.) предоставляет доступ к создаваемому пользователями каталогу ссылок на торрент-файлы, которые содержат только списки хеш-сумм.
Убедительная просьба с жалобами обращаться напрямую к пользователю, разместившему торрент файл.

Вверх