Loading...
Error

(Rock) Дубы-колдуны - Там, за горизонтом (1994) [FLAC (Image+.CUE), Lossless]

Статистика раздачи
Размер:  239 MB   |    Зарегистрирован:  1 год 6 месяцев   |    Скачан:  8 раз

Полного источника не было: 3 дня

Сидов:  0  |  0 KB/s  ]   Личеров:  0  |  0 KB/s  ]

* - сиды/пиры с внешних источников

   
 
Автор Сообщение

Бишеп Пол:Муж

07-Мар-2021 05:22

Дубы-колдуны - Там, за горизонтом

Жанр: Rock
Год выпуска: 1994
Носитель: CD
Производитель диска: ТАУ Продукт - TAU 00063
Аудиокодек: FLAC
Тип рипа: Image+.CUE
Битрейт аудио: lossless
Продолжительность: 00:40:01


Треклист:
01. Звёзды континентов (02:55)
02. О чём плачут гитары (01:59)
03. Кто тебе сказал (02:41)
04. Алёшкина любовь (03:10)
05. Танец теней (01:54)
06. Чёрный поезд (02:29)
07. На чём стоит любовь (02:20)
08. Осенние дубы (01:54)
09. Пара-па-пабам (01:03)
10. Толстый Карлсон (02:58)
11. Легко влюбиться (02:34)
12. Нет тебя прекрасней (03:19)
13. Песня друзей (02:12)
14. Аргентинские колдуны (01:48)
15. Но ты проходишь стороной (03:11)
16. Там, за облаками (03:33)

Exact Audio Copy V1.1 from 23. June 2015 

EAC extraction logfile from 20. September 2017, 1:51

Дубы-колдуны / Там, за горизонтом [ТАУ 00063]

Used drive : TSSTcorpDVD+-RW SU-208GB Adapter: 1 ID: 0

Read mode : Secure
Utilize accurate stream : Yes
Defeat audio cache : Yes
Make use of C2 pointers : No

Read offset correction : 6
Overread into Lead-In and Lead-Out : No
Fill up missing offset samples with silence : Yes
Delete leading and trailing silent blocks : No
Null samples used in CRC calculations : Yes
Used interface : Native Win32 interface for Win NT & 2000

Used output format : Internal WAV Routines
Sample format : 44.100 Hz; 16 Bit; Stereo

TOC of the extracted CD

Track | Start | Length | Start sector | End sector
---------------------------------------------------------
1 | 0:00.20 | 2:55.20 | 20 | 13164
2 | 2:55.40 | 1:59.28 | 13165 | 22117
3 | 4:54.68 | 2:41.12 | 22118 | 34204
4 | 7:36.05 | 3:09.73 | 34205 | 48452
5 | 10:46.03 | 1:54.17 | 48453 | 57019
6 | 12:40.20 | 2:28.73 | 57020 | 68192
7 | 15:09.18 | 2:19.60 | 68193 | 78677
8 | 17:29.03 | 1:54.37 | 78678 | 87264
9 | 19:23.40 | 1:02.48 | 87265 | 91962
10 | 20:26.13 | 2:58.37 | 91963 | 105349
11 | 23:24.50 | 2:33.40 | 105350 | 116864
12 | 25:58.15 | 3:19.25 | 116865 | 131814
13 | 29:17.40 | 2:12.18 | 131815 | 141732
14 | 31:29.58 | 1:47.70 | 141733 | 149827
15 | 33:17.53 | 3:11.00 | 149828 | 164152
16 | 36:28.53 | 3:32.70 | 164153 | 180122

Range status and errors

Selected range

Filename D:\Дубы-колдуны - Там, за горизонтом [ТАУ 00063].wav

Peak level 90.4 %
Extraction speed 3.9 X
Range quality 100.0 %
Test CRC 907A0BF1
Copy CRC 907A0BF1
Copy OK

No errors occurred

AccurateRip summary
Track 1 cannot be verified as accurate (confidence 1) [9533A481], AccurateRip returned [EA1F4F07] (AR v2)
Track 2 cannot be verified as accurate (confidence 1) [3E424FFC], AccurateRip returned [C682B252] (AR v2)
Track 3 cannot be verified as accurate (confidence 1) [7F61CE18], AccurateRip returned [924843B4] (AR v2)
Track 4 cannot be verified as accurate (confidence 1) [D886F4D7], AccurateRip returned [39D1110C] (AR v2)
Track 5 cannot be verified as accurate (confidence 1) [34604172], AccurateRip returned [42F058C1] (AR v2)
Track 6 cannot be verified as accurate (confidence 1) [CB21B77F], AccurateRip returned [9CE6B3F6] (AR v2)
Track 7 cannot be verified as accurate (confidence 1) [6628FC44], AccurateRip returned [B5320FE0] (AR v2)
Track 8 cannot be verified as accurate (confidence 1) [704C5C49], AccurateRip returned [34E63A3E] (AR v2)
Track 9 cannot be verified as accurate (confidence 1) [DCE9D47B], AccurateRip returned [ECEA8835] (AR v2)
Track 10 cannot be verified as accurate (confidence 1) [FCE40DF0], AccurateRip returned [59A48E94] (AR v2)
Track 11 cannot be verified as accurate (confidence 1) [816A4798], AccurateRip returned [6B2CCA6D] (AR v2)
Track 12 cannot be verified as accurate (confidence 1) [6CB5D5EF], AccurateRip returned [C2737072] (AR v2)
Track 13 accurately ripped (confidence 1) [1AFF151E] (AR v1)
Track 14 cannot be verified as accurate (confidence 1) [CF1208EC], AccurateRip returned [3BBA59DF] (AR v2)
Track 15 cannot be verified as accurate (confidence 1) [F6605178], AccurateRip returned [60026F22] (AR v2)
Track 16 accurately ripped (confidence 1) [74D6A345] (AR v1)
2 track(s) accurately ripped
14 track(s) could not be verified as accurate

Some tracks could not be verified as accurate

End of status report

---- CUETools DB Plugin V2.1.6

[CTDB TOCID: 8iJZMj5MNwKBh6Dxl2G9nzhCr4Q-] disk not present in database
Submit result: 8iJZMj5MNwKBh6Dxl2G9nzhCr4Q- has been uploaded

==== Log checksum E91CD93774FFFBD830B4ABF9CCCE313E0BF2B7FDD3A721A11958B9D9E7953B0B ====
REM GENRE Rock 
REM DATE 1993
REM DISCID E8096110
REM COMMENT "ExactAudioCopy v1.1"
PERFORMER "Дубы-колдуны"
TITLE "Там, за горизонтом [ТАУ 00063]"
FILE "Дубы-колдуны - Там, за горизонтом [ТАУ 00063].flac" WAVE
TRACK 01 AUDIO
TITLE "Звёзды континентов"
PERFORMER "Дубы-колдуны"
INDEX 00 00:00:00
INDEX 01 00:00:20
TRACK 02 AUDIO
TITLE "О чём плачут гитары"
PERFORMER "Дубы-колдуны"
INDEX 00 02:53:53
INDEX 01 02:55:40
TRACK 03 AUDIO
TITLE "Кто тебе сказал"
PERFORMER "Дубы-колдуны"
INDEX 00 04:53:33
INDEX 01 04:54:68
TRACK 04 AUDIO
TITLE "Алёшкина любовь"
PERFORMER "Дубы-колдуны"
INDEX 00 07:34:23
INDEX 01 07:36:05
TRACK 05 AUDIO
TITLE "Танец теней"
PERFORMER "Дубы-колдуны"
INDEX 00 10:44:13
INDEX 01 10:46:03
TRACK 06 AUDIO
TITLE "Чёрный поезд"
PERFORMER "Дубы-колдуны"
INDEX 00 12:38:28
INDEX 01 12:40:20
TRACK 07 AUDIO
TITLE "На чём стоит любовь"
PERFORMER "Дубы-колдуны"
INDEX 00 15:07:38
INDEX 01 15:09:18
TRACK 08 AUDIO
TITLE "Осенние дубы"
PERFORMER "Дубы-колдуны"
INDEX 00 17:27:20
INDEX 01 17:29:03
TRACK 09 AUDIO
TITLE "Пара-па-пабам"
PERFORMER "Дубы-колдуны"
INDEX 00 19:21:63
INDEX 01 19:23:40
TRACK 10 AUDIO
TITLE "Толстый Карлсон"
PERFORMER "Дубы-колдуны"
INDEX 00 20:24:40
INDEX 01 20:26:13
TRACK 11 AUDIO
TITLE "Легко влюбиться"
PERFORMER "Дубы-колдуны"
INDEX 00 23:23:08
INDEX 01 23:24:50
TRACK 12 AUDIO
TITLE "Нет тебя прекрасней"
PERFORMER "Дубы-колдуны"
INDEX 00 25:56:30
INDEX 01 25:58:15
TRACK 13 AUDIO
TITLE "Песня друзей"
PERFORMER "Дубы-колдуны"
INDEX 00 29:15:55
INDEX 01 29:17:40
TRACK 14 AUDIO
TITLE "Аргентинские колдуны"
PERFORMER "Дубы-колдуны"
INDEX 00 31:27:70
INDEX 01 31:29:58
TRACK 15 AUDIO
TITLE "Но ты проходишь стороной"
PERFORMER "Дубы-колдуны"
INDEX 00 33:15:68
INDEX 01 33:17:53
TRACK 16 AUDIO
TITLE "Там, за облаками"
PERFORMER "Дубы-колдуны"
INDEX 00 36:26:58
INDEX 01 36:28:53

Этот торрент недоступен для скачивания без регистрации, однако доступен по публичной magnet-ссылке (источники с публичных трекеров). Перед использованием ссылки прочтите, пожалуйста Пользовательское соглашение, а также как можно дольше оставайтесь на раздаче! Для того, чтобы скачать сам торрент-файл (который видит больше источников), а также для того, чтобы поблагодарить релизера, вам необходимо зарегистрироваться. Если регистрироваться лень - вы можете также попробовать скачать релиз по нашим партнерским ссылкам ниже. Кроме того, зарегистрированным пользователям не показывается всплывающая реклама при скачивании.

[underver.se].t201436.torrent
Трекер: Зарегистрирован   [ 07.03.2021 05:22 ]  
Статус: проверено (by Бишеп at 07.03.2021 05:22)
Поблагодарили: пока никто не поблагодарил...
Тип торрента: публичный - доступные источники с открытых трекеров: 
Размер: 239 MB (занимает 0.05 DVDR, для записи нужно 1 болванка DVDR/RW)
 
 

Яндекс.Метрика powered by Sphinx


В Н И М А Н И Е
Сайт не распространяет и не хранит электронные версии произведений, а лишь бесплатно и без коммерческой выгоды (не требуя взамен платы,
SMS и т.д.) предоставляет доступ к создаваемому пользователями каталогу ссылок на торрент-файлы, которые содержат только списки хеш-сумм.
Убедительная просьба с жалобами обращаться напрямую к пользователю, разместившему торрент файл.

Вверх