Loading...
Error

(Pop Rock, Soft Rock, Classic Rock) Аракс - Колокол Тревоги (2014) [FLAC (Tracks+.Cue), Lossless]

Статистика раздачи
Размер:  345 MB   |    Зарегистрирован:  1 год 5 месяцев   |    Скачан:  7 раз

Полного источника не было: 12 часов

Сидов:  0  |  0 KB/s  ]   Личеров:  0  |  0 KB/s  ]

* - сиды/пиры с внешних источников

   
 
Автор Сообщение

Бишеп Пол:Муж

11-Апр-2021 07:04

Аракс - Колокол Тревоги

Жанр: Pop Rock, Soft Rock, Classic Rock
Год выпуска: 2014
Носитель: CD
Производитель диска: Мелодия - SUCD 60-27186
Аудиокодек: FLAC
Тип рипа: Tracks+.CUE
Битрейт аудио: lossless
Продолжительность: 00:52:01


Треклист:
01. Колокол тревоги
02. Земляничная поляна
03. Радуга
04. Гадкий утенок
05. С чего бы
06. Снова весна
07. Все как прежде
08. Мир снов
09. Без тебя
10. Инструментальная
11. Шумят дожди
12. Знаю, что ты придешь
13. Мода

Exact Audio Copy V1.3 from 2. September 2016 

EAC extraction logfile from 7. April 2021, 17:37

Аракс / Колокол Тревоги (Мелодия SUCD 60-27186)

Used drive : ASUS DRW-24D5MT Adapter: 1 ID: 1

Read mode : Secure
Utilize accurate stream : Yes
Defeat audio cache : Yes
Make use of C2 pointers : No

Read offset correction : 6
Overread into Lead-In and Lead-Out : No
Fill up missing offset samples with silence : Yes
Delete leading and trailing silent blocks : No
Null samples used in CRC calculations : Yes
Used interface : Installed external ASPI interface
Gap handling : Appended to previous track

Used output format : User Defined Encoder
Selected bitrate : 128 kBit/s
Quality : High
Add ID3 tag : No
Command line compressor : C:\Program Files (x86)\Exact Audio Copy\Flac\flac.exe
Additional command line options : -8 -V -T "TITLE=%title%" -T "ARTIST=%artist%" -T "ALBUMARTIST=%albumartist%" -T "ALBUM=%albumtitle%" -T "DATE=%year%" -T "TRACKNUMBER=%tracknr%" -T "TRACKTOTAL=%numtracks%" -T "GENRE=%genre%" -T "COMMENT=%comment%" -T "PERFORMER=%albuminterpret%" -T "COMPOSER=%composer%" %source% -o %dest%

TOC of the extracted CD

Track | Start | Length | Start sector | End sector
---------------------------------------------------------
1 | 0:00.00 | 4:49.31 | 0 | 21705
2 | 4:49.31 | 2:53.37 | 21706 | 34717
3 | 7:42.68 | 3:49.65 | 34718 | 51957
4 | 11:32.58 | 2:14.22 | 51958 | 62029
5 | 13:47.05 | 5:32.17 | 62030 | 86946
6 | 19:19.22 | 3:20.60 | 86947 | 102006
7 | 22:40.07 | 5:53.58 | 102007 | 128539
8 | 28:33.65 | 4:58.17 | 128540 | 150906
9 | 33:32.07 | 3:41.66 | 150907 | 167547
10 | 37:13.73 | 3:40.16 | 167548 | 184063
11 | 40:54.14 | 2:45.03 | 184064 | 196441
12 | 43:39.17 | 4:26.63 | 196442 | 216454
13 | 48:06.05 | 3:54.34 | 216455 | 234038

Track 1

Filename C:\Users\breaker65\Desktop\Аракс\01 Колокол Тревоги.wav

Pre-gap length 0:00:02.00

Peak level 96.3 %
Extraction speed 1.2 X
Track quality 100.0 %
Test CRC 099D1F7A
Copy CRC 099D1F7A
Accurately ripped (confidence 1) [FFA0AF9B] (AR v2)
Copy OK

Track 2

Filename C:\Users\breaker65\Desktop\Аракс\02 Земляничная Поляна.wav

Peak level 70.7 %
Extraction speed 1.2 X
Track quality 100.0 %
Test CRC 1A3918EE
Copy CRC 1A3918EE
Accurately ripped (confidence 1) [3F6331C0] (AR v2)
Copy OK

Track 3

Filename C:\Users\breaker65\Desktop\Аракс\03 Радуга.wav

Peak level 62.7 %
Extraction speed 1.3 X
Track quality 100.0 %
Test CRC DA430406
Copy CRC DA430406
Accurately ripped (confidence 1) [BB0BDFFF] (AR v2)
Copy OK

Track 4

Filename C:\Users\breaker65\Desktop\Аракс\04 Гадкий Утенок.wav

Peak level 66.9 %
Extraction speed 1.3 X
Track quality 100.0 %
Test CRC 4A12887E
Copy CRC 4A12887E
Accurately ripped (confidence 1) [3602AC0C] (AR v2)
Copy OK

Track 5

Filename C:\Users\breaker65\Desktop\Аракс\05 С Чего Бы.wav

Peak level 85.4 %
Extraction speed 1.6 X
Track quality 100.0 %
Test CRC F68E7E23
Copy CRC F68E7E23
Accurately ripped (confidence 1) [FB1F82F4] (AR v2)
Copy OK

Track 6

Filename C:\Users\breaker65\Desktop\Аракс\06 Снова Весна.wav

Peak level 68.3 %
Extraction speed 1.6 X
Track quality 100.0 %
Test CRC D362478C
Copy CRC D362478C
Accurately ripped (confidence 1) [FBD8C8CC] (AR v2)
Copy OK

Track 7

Filename C:\Users\breaker65\Desktop\Аракс\07 Все Как Прежде.wav

Peak level 78.1 %
Extraction speed 1.8 X
Track quality 100.0 %
Test CRC 24A019F7
Copy CRC 24A019F7
Accurately ripped (confidence 1) [43779725] (AR v2)
Copy OK

Track 8

Filename C:\Users\breaker65\Desktop\Аракс\08 Мир Снов.wav

Peak level 77.6 %
Extraction speed 1.8 X
Track quality 100.0 %
Test CRC 9A4E2D82
Copy CRC 9A4E2D82
Accurately ripped (confidence 1) [D557E174] (AR v2)
Copy OK

Track 9

Filename C:\Users\breaker65\Desktop\Аракс\09 Без Тебя.wav

Peak level 67.8 %
Extraction speed 1.9 X
Track quality 100.0 %
Test CRC F0B3F55A
Copy CRC F0B3F55A
Accurately ripped (confidence 1) [87135F93] (AR v2)
Copy OK

Track 10

Filename C:\Users\breaker65\Desktop\Аракс\10 Инструментальная (Слепой В Чулане).wav

Peak level 79.2 %
Extraction speed 1.9 X
Track quality 100.0 %
Test CRC E1975746
Copy CRC E1975746
Accurately ripped (confidence 1) [0E5CC279] (AR v2)
Copy OK

Track 11

Filename C:\Users\breaker65\Desktop\Аракс\11 Шумят Дожди.wav

Peak level 67.4 %
Extraction speed 1.9 X
Track quality 100.0 %
Test CRC 6325E075
Copy CRC 6325E075
Accurately ripped (confidence 1) [D0BA13D1] (AR v2)
Copy OK

Track 12

Filename C:\Users\breaker65\Desktop\Аракс\12 Знаю, Что Ты Придешь.wav

Peak level 65.0 %
Extraction speed 2.1 X
Track quality 100.0 %
Test CRC 94A07EA1
Copy CRC 94A07EA1
Accurately ripped (confidence 1) [0DB352BC] (AR v2)
Copy OK

Track 13

Filename C:\Users\breaker65\Desktop\Аракс\13 Мода.wav

Peak level 98.0 %
Extraction speed 2.1 X
Track quality 100.0 %
Test CRC EC009E74
Copy CRC EC009E74
Accurately ripped (confidence 1) [D6B9D83D] (AR v2)
Copy OK

All tracks accurately ripped

No errors occurred

End of status report

---- CUETools DB Plugin V2.1.6

[CTDB TOCID: A9j5chw8jB7UFNNXV12Z9a0SODc-] found
Submit result: A9j5chw8jB7UFNNXV12Z9a0SODc- has been confirmed
Track | CTDB Status
1 | (1/1) Accurately ripped
2 | (1/1) Accurately ripped
3 | (1/1) Accurately ripped
4 | (1/1) Accurately ripped
5 | (1/1) Accurately ripped
6 | (1/1) Accurately ripped
7 | (1/1) Accurately ripped
8 | (1/1) Accurately ripped
9 | (1/1) Accurately ripped
10 | (1/1) Accurately ripped
11 | (1/1) Accurately ripped
12 | (1/1) Accurately ripped
13 | (1/1) Accurately ripped

==== Log checksum 580ECF63AFDB917361A6851E58793E743B3E78A4382EC6193DA768EF4CBB4D27 ====
REM GENRE Rock 
REM DATE 1980
REM DISCID AE0C300D
REM COMMENT "ExactAudioCopy v1.3"
PERFORMER "Аракс"
TITLE "Колокол Тревоги (Мелодия SUCD 60-27186) "
REM COMPOSER ""
FILE "01 Колокол Тревоги.wav" WAVE
TRACK 01 AUDIO
TITLE "Колокол Тревоги"
PERFORMER "Аракс"
REM COMPOSER ""
FLAGS DCP
INDEX 01 00:00:00
FILE "02 Земляничная Поляна.wav" WAVE
TRACK 02 AUDIO
TITLE "Земляничная Поляна"
PERFORMER "Аракс"
REM COMPOSER ""
FLAGS DCP
INDEX 01 00:00:00
FILE "03 Радуга.wav" WAVE
TRACK 03 AUDIO
TITLE "Радуга"
PERFORMER "Аракс"
REM COMPOSER ""
FLAGS DCP
INDEX 01 00:00:00
FILE "04 Гадкий Утенок.wav" WAVE
TRACK 04 AUDIO
TITLE "Гадкий Утенок"
PERFORMER "Аракс"
REM COMPOSER ""
FLAGS DCP
INDEX 01 00:00:00
FILE "05 С Чего Бы.wav" WAVE
TRACK 05 AUDIO
TITLE "С Чего Бы"
PERFORMER "Аракс"
REM COMPOSER ""
FLAGS DCP
INDEX 01 00:00:00
FILE "06 Снова Весна.wav" WAVE
TRACK 06 AUDIO
TITLE "Снова Весна"
PERFORMER "Аракс"
REM COMPOSER ""
FLAGS DCP
INDEX 01 00:00:00
FILE "07 Все Как Прежде.wav" WAVE
TRACK 07 AUDIO
TITLE "Все Как Прежде"
PERFORMER "Аракс"
REM COMPOSER ""
FLAGS DCP
INDEX 01 00:00:00
FILE "08 Мир Снов.wav" WAVE
TRACK 08 AUDIO
TITLE "Мир Снов"
PERFORMER "Аракс"
REM COMPOSER ""
FLAGS DCP
INDEX 01 00:00:00
FILE "09 Без Тебя.wav" WAVE
TRACK 09 AUDIO
TITLE "Без Тебя"
PERFORMER "Аракс"
REM COMPOSER ""
FLAGS DCP
INDEX 01 00:00:00
FILE "10 Инструментальная (Слепой В Чулане).wav" WAVE
TRACK 10 AUDIO
TITLE "Инструментальная (Слепой В Чулане)"
PERFORMER "Аракс"
REM COMPOSER ""
FLAGS DCP
INDEX 01 00:00:00
FILE "11 Шумят Дожди.wav" WAVE
TRACK 11 AUDIO
TITLE "Шумят Дожди"
PERFORMER "Аракс"
REM COMPOSER ""
FLAGS DCP
INDEX 01 00:00:00
FILE "12 Знаю, Что Ты Придешь.wav" WAVE
TRACK 12 AUDIO
TITLE "Знаю, Что Ты Придешь"
PERFORMER "Аракс"
REM COMPOSER ""
FLAGS DCP
INDEX 01 00:00:00
FILE "13 Мода.wav" WAVE
TRACK 13 AUDIO
TITLE "Мода"
PERFORMER "Аракс"
REM COMPOSER ""
FLAGS DCP
INDEX 01 00:00:00

Этот торрент недоступен для скачивания без регистрации, однако доступен по публичной magnet-ссылке (источники с публичных трекеров). Перед использованием ссылки прочтите, пожалуйста Пользовательское соглашение, а также как можно дольше оставайтесь на раздаче! Для того, чтобы скачать сам торрент-файл (который видит больше источников), а также для того, чтобы поблагодарить релизера, вам необходимо зарегистрироваться. Если регистрироваться лень - вы можете также попробовать скачать релиз по нашим партнерским ссылкам ниже. Кроме того, зарегистрированным пользователям не показывается всплывающая реклама при скачивании.

[underver.se].t204268.torrent
Трекер: Зарегистрирован   [ 11.04.2021 07:04 ]  
Статус: проверено (by Бишеп at 11.04.2021 07:04)
Поблагодарили: пока никто не поблагодарил...
Тип торрента: публичный - доступные источники с открытых трекеров: 
Размер: 345 MB (занимает 0.08 DVDR, для записи нужно 1 болванка DVDR/RW)
 
 

Яндекс.Метрика powered by Sphinx


В Н И М А Н И Е
Сайт не распространяет и не хранит электронные версии произведений, а лишь бесплатно и без коммерческой выгоды (не требуя взамен платы,
SMS и т.д.) предоставляет доступ к создаваемому пользователями каталогу ссылок на торрент-файлы, которые содержат только списки хеш-сумм.
Убедительная просьба с жалобами обращаться напрямую к пользователю, разместившему торрент файл.

Вверх