Loading...
Error

Юпитер раскрывает свои тайны / Jupiter Revealed (Том Хьюитсон) [2018, документальный, космос, DVB] DVO

Статистика раздачи
Размер:  663 MB   |    Зарегистрирован:  1 год 5 месяцев   |    Скачан:  4 раза

Полного источника не было: 13 дней

Сидов:  0  |  0 KB/s  ]   Личеров:  0  |  0 KB/s  ]

* - сиды/пиры с внешних источников

   
 
Автор Сообщение

ARI71 Пол:Муж

12-Апр-2021 12:22

Юпитер раскрывает свои тайны / Jupiter Revealed


Год выпуска: 2018
Страна: Великобритания, BBC Studios
Жанр: документальный, космос
Продолжительность: 00:51:33
Перевод: профессиональный (двухголосый закадровый)
Режиссер: Том Хьюитсон

Описание: Юпитер - самая большая планета Солнечной системы. Но мы до сих пор знаем удивительно мало об этом небесном теле. В 2011 году НАСА был запущен космический аппарат Juno, который достиг орбиты Юпитера 5 лет спустя. Этот фильм рассказывает о миссии Juno и раскрывает наконец некоторые секреты величайшего газового гиганта.

качество: DVB

формат: TS/M2TS
Видео: [email protected] (16:9) AVC (H.264) [email protected], ~ 1514 kbps, 25fps
Аудио: Русский 48 kHz, MPEG Layer 2, 2 ch, ~192.00 kbps avg
 
Complete name : F:\Наладки\SD-фильмы\Юпитер раскрывает свои тайны.ts
Format : MPEG-TS
File size : 663 MiB
Duration : 51 min 33 s
Overall bit rate mode : Variable
Overall bit rate : 1 797 kb/s

Video
ID : 401 (0x191)
Menu ID : 2608 (0xA30)
Format : AVC
Format/Info : Advanced Video Codec
Format profile : [email protected]
Format settings : CABAC / 4 Ref Frames
Format settings, CABAC : Yes
Format settings, Reference : 4 frames
Format settings, GOP : M=4, N=28
Codec ID : 27
Duration : 51 min 33 s
Bit rate : 1 514 kb/s
Width : 720 pixels
Height : 576 pixels
Display aspect ratio : 16:9
Frame rate : 25.000 FPS
Standard : Component
Color space : YUV
Chroma subsampling : 4:2:0
Bit depth : 8 bits
Scan type : Interlaced
Scan type, store method : Separated fields
Scan order : Top Field First
Bits/(Pixel*Frame) : 0.146
Stream size : 558 MiB (84%)
Color range : Limited
Color primaries : BT.601 PAL
Transfer characteristics : BT.470 System B/G
Matrix coefficients : BT.470 System B/G

Audio
ID : 402 (0x192)
Menu ID : 2608 (0xA30)
Format : MPEG Audio
Format version : Version 1
Format profile : Layer 2
Codec ID : 3
Duration : 51 min 33 s
Bit rate mode : Constant
Bit rate : 192 kb/s
Channel(s) : 2 channels
Sampling rate : 48.0 kHz
Frame rate : 41.667 FPS (1152 SPF)
Compression mode : Lossy
Stream size : 70.8 MiB (11%)
Language : Russian

Этот торрент недоступен для скачивания без регистрации, однако доступен по публичной magnet-ссылке (источники с публичных трекеров). Перед использованием ссылки прочтите, пожалуйста Пользовательское соглашение, а также как можно дольше оставайтесь на раздаче! Для того, чтобы скачать сам торрент-файл (который видит больше источников), а также для того, чтобы поблагодарить релизера, вам необходимо зарегистрироваться. Если регистрироваться лень - вы можете также попробовать скачать релиз по нашим партнерским ссылкам ниже. Кроме того, зарегистрированным пользователям не показывается всплывающая реклама при скачивании.

[underver.se].t204372.torrent
Трекер: Зарегистрирован   [ 12.04.2021 12:22 ]  
Статус: проверено (by ARI71 at 12.04.2021 12:23)
Поблагодарили: 1 человек
Тип торрента: публичный - доступные источники с открытых трекеров: 
Размер: 663 MB (занимает 0.15 DVDR, для записи нужно 1 болванка DVDR/RW)
 
 

Яндекс.Метрика powered by Sphinx


В Н И М А Н И Е
Сайт не распространяет и не хранит электронные версии произведений, а лишь бесплатно и без коммерческой выгоды (не требуя взамен платы,
SMS и т.д.) предоставляет доступ к создаваемому пользователями каталогу ссылок на торрент-файлы, которые содержат только списки хеш-сумм.
Убедительная просьба с жалобами обращаться напрямую к пользователю, разместившему торрент файл.

Вверх