Loading...
Error

Прощай, Кассини. Здравствуй, Сатурн! / Goodbye Cassini - Hello Saturn (Тоби Макдональд) [2017, документальный, космос, DVB] DVO

Статистика раздачи
Размер:  671 MB   |    Зарегистрирован:  1 год 5 месяцев   |    Скачан:  2 раза

Полного источника не было: 1 месяц 8 дней

Сидов:  0  |  0 KB/s  ]   Личеров:  0  |  0 KB/s  ]

* - сиды/пиры с внешних источников

   
 
Автор Сообщение

ARI71 Пол:Муж

12-Апр-2021 12:35

Прощай, Кассини. Здравствуй, Сатурн! / Goodbye Cassini - Hello Saturn


Год выпуска: 2017
Страна: Великобритания, BBC Studios
Жанр: документальный, космос
Продолжительность: 00:51:51
Перевод: профессиональный (двухголосый закадровый)
Режиссер: Тоби Макдональд

Описание: 15 сентября 2017 года космический аппарат Кассини завершил свою знаменитую 13-летнюю миссию к Сатурну, погрузившись в атмосферу газового гиганта. Фильм рассказывает об этом удивительном путешествии. Вы впервые заглянете внутрь колец планеты, а также примете участие в первом точном измерении магнитного поля Сатурна, что позволит раскрыть немало секретов не только об этом удивительном гиганте, но и о Солнечной системе в целом.

качество: DVB

формат: TS
Видео: [email protected] (16:9) AVC (H.264) [email protected], ~ 1525 kbps, 25fps
Аудио: Русский 48 kHz, MPEG Layer 2, 2 ch, ~192.00 kbps avg
 
Complete name : F:\Наладки\SD-фильмы\Прощай, Кассини_ Здравствуй, Сатурн!.ts
Format : MPEG-TS
File size : 671 MiB
Duration : 51 min 51 s
Overall bit rate mode : Variable
Overall bit rate : 1 808 kb/s

Video
ID : 401 (0x191)
Menu ID : 2608 (0xA30)
Format : AVC
Format/Info : Advanced Video Codec
Format profile : [email protected]
Format settings : CABAC / 4 Ref Frames
Format settings, CABAC : Yes
Format settings, Reference : 4 frames
Format settings, GOP : M=4, N=28
Codec ID : 27
Duration : 51 min 51 s
Bit rate : 1 525 kb/s
Width : 720 pixels
Height : 576 pixels
Display aspect ratio : 16:9
Frame rate : 25.000 FPS
Standard : Component
Color space : YUV
Chroma subsampling : 4:2:0
Bit depth : 8 bits
Scan type : Interlaced
Scan type, store method : Separated fields
Scan order : Top Field First
Bits/(Pixel*Frame) : 0.147
Stream size : 566 MiB (84%)
Color range : Limited
Color primaries : BT.601 PAL
Transfer characteristics : BT.470 System B/G
Matrix coefficients : BT.470 System B/G

Audio
ID : 402 (0x192)
Menu ID : 2608 (0xA30)
Format : MPEG Audio
Format version : Version 1
Format profile : Layer 2
Codec ID : 3
Duration : 51 min 51 s
Bit rate mode : Constant
Bit rate : 192 kb/s
Channel(s) : 2 channels
Sampling rate : 48.0 kHz
Frame rate : 41.667 FPS (1152 SPF)
Compression mode : Lossy
Delay relative to video : -120 ms
Stream size : 71.2 MiB (11%)
Language : Russian

Этот торрент недоступен для скачивания без регистрации, однако доступен по публичной magnet-ссылке (источники с публичных трекеров). Перед использованием ссылки прочтите, пожалуйста Пользовательское соглашение, а также как можно дольше оставайтесь на раздаче! Для того, чтобы скачать сам торрент-файл (который видит больше источников), а также для того, чтобы поблагодарить релизера, вам необходимо зарегистрироваться. Если регистрироваться лень - вы можете также попробовать скачать релиз по нашим партнерским ссылкам ниже. Кроме того, зарегистрированным пользователям не показывается всплывающая реклама при скачивании.

[underver.se].t204373.torrent
Трекер: Зарегистрирован   [ 12.04.2021 12:35 ]  
Статус: проверено (by ARI71 at 12.04.2021 12:38)
Поблагодарили: пока никто не поблагодарил...
Тип торрента: публичный - доступные источники с открытых трекеров: 
Размер: 671 MB (занимает 0.15 DVDR, для записи нужно 1 болванка DVDR/RW)
 
 

Яндекс.Метрика powered by Sphinx


В Н И М А Н И Е
Сайт не распространяет и не хранит электронные версии произведений, а лишь бесплатно и без коммерческой выгоды (не требуя взамен платы,
SMS и т.д.) предоставляет доступ к создаваемому пользователями каталогу ссылок на торрент-файлы, которые содержат только списки хеш-сумм.
Убедительная просьба с жалобами обращаться напрямую к пользователю, разместившему торрент файл.

Вверх