Loading...
Error

Тайны кратера динозавров / Secrets Of The Dinosaur Crater / The Day the Dinosaurs Died (Ник Грин, Бен Лори) [2017, документальный, археология, DVB] DVO

Статистика раздачи
Размер:  761 MB   |    Зарегистрирован:  1 год 5 месяцев   |    Скачан:  1 раз

Полного источника не было: 4 месяца 11 дней

Сидов:  0  |  0 KB/s  ]   Личеров:  0  |  0 KB/s  ]

* - сиды/пиры с внешних источников

   
 
Автор Сообщение

ARI71 Пол:Муж

12-Апр-2021 13:17

Тайны кратера динозавров / Secrets Of The Dinosaur Crater / The Day the Dinosaurs Died


Год выпуска: 2017
Страна: Великобритания
Жанр: документальный, археология
Продолжительность: 00:49:50
Перевод: профессиональный (двухголосый закадровый)
Режиссер: Ник Грин, Бен Лори

Описание: 66 миллионов лет назад астероид размером с Лондон врезался в Землю. Тот день стал смертельным для динозавров. Как одно происшествие смогло уничтожить три четверти всех видов животных? И как остальным удалось выжить?" Документальный фильм расскажет о достижениях самых передовых исследований того катастрофического события.

качество: DVB

формат: TS/M2TS
Видео: [email protected] (16:9) AVC (H.264) [email protected], ~ 1834 kbps, 25fps
Аудио: Русский 48 kHz, MPEG Layer 2, 2 ch, ~192.00 kbps avg
 
Complete name : F:\Наладки\SD-фильмы\Тайны кратера динозавров.ts
Format : MPEG-TS
File size : 761 MiB
Duration : 49 min 50 s
Overall bit rate mode : Variable
Overall bit rate : 2 134 kb/s

Video
ID : 401 (0x191)
Menu ID : 2608 (0xA30)
Format : AVC
Format/Info : Advanced Video Codec
Format profile : [email protected]
Format settings : CABAC / 4 Ref Frames
Format settings, CABAC : Yes
Format settings, ReFrames : 4 frames
Codec ID : 27
Duration : 49 min 50 s
Bit rate : 1 834 kb/s
Width : 720 pixels
Height : 576 pixels
Display aspect ratio : 16:9
Frame rate : 25.000 FPS
Standard : Component
Color space : YUV
Chroma subsampling : 4:2:0
Bit depth : 8 bits
Scan type : Interlaced
Scan type, store method : Separated fields
Scan order : Top Field First
Bits/(Pixel*Frame) : 0.177
Stream size : 654 MiB (86%)
Color range : Limited
Color primaries : BT.601 PAL
Transfer characteristics : BT.470 System B, BT.470 System G
Matrix coefficients : BT.470 System B, BT.470 System G

Audio
ID : 402 (0x192)
Menu ID : 2608 (0xA30)
Format : MPEG Audio
Format version : Version 1
Format profile : Layer 2
Codec ID : 3
Duration : 49 min 50 s
Bit rate mode : Constant
Bit rate : 192 kb/s
Channel(s) : 2 channels
Sampling rate : 48.0 kHz
Frame rate : 41.667 FPS (1152 SPF)
Compression mode : Lossy
Stream size : 68.4 MiB (9%)
Language : Russian

Этот торрент недоступен для скачивания без регистрации, однако доступен по публичной magnet-ссылке (источники с публичных трекеров). Перед использованием ссылки прочтите, пожалуйста Пользовательское соглашение, а также как можно дольше оставайтесь на раздаче! Для того, чтобы скачать сам торрент-файл (который видит больше источников), а также для того, чтобы поблагодарить релизера, вам необходимо зарегистрироваться. Если регистрироваться лень - вы можете также попробовать скачать релиз по нашим партнерским ссылкам ниже. Кроме того, зарегистрированным пользователям не показывается всплывающая реклама при скачивании.

[underver.se].t204376.torrent
Трекер: Зарегистрирован   [ 12.04.2021 13:17 ]  
Статус: проверено (by ARI71 at 12.04.2021 13:17)
Поблагодарили: пока никто не поблагодарил...
Тип торрента: публичный - доступные источники с открытых трекеров: 
Размер: 761 MB (занимает 0.17 DVDR, для записи нужно 1 болванка DVDR/RW)
 
 

Яндекс.Метрика powered by Sphinx


В Н И М А Н И Е
Сайт не распространяет и не хранит электронные версии произведений, а лишь бесплатно и без коммерческой выгоды (не требуя взамен платы,
SMS и т.д.) предоставляет доступ к создаваемому пользователями каталогу ссылок на торрент-файлы, которые содержат только списки хеш-сумм.
Убедительная просьба с жалобами обращаться напрямую к пользователю, разместившему торрент файл.

Вверх