Loading...
Error

Правда о том, как быть в форме / The Truth About Getting fit (Кейт Прингл) [2018, документальный, DVB] DVO

Статистика раздачи
Размер:  717 MB   |    Зарегистрирован:  1 год 5 месяцев   |    Скачан:  4 раза

Полного источника не было: 1 день 11 часов

Сидов:  0  |  0 KB/s  ]   Личеров:  0  |  0 KB/s  ]

* - сиды/пиры с внешних источников

   
 
Автор Сообщение

ARI71 Пол:Муж

12-Апр-2021 16:55

Правда о том, как быть в форме / The Truth About Getting fit


Год выпуска: 2018
Страна: Великобритания, BBC Studios
Жанр: документальный
Продолжительность: 00:49:21
Перевод: профессиональный (двухголосый закадровый)
Режиссер: Кейт Прингл

Описание: Какое минимальное количество физических упражнений нужно делать, чтобы прожить долгую и здоровую жизнь? Достаточно ли заниматься 2 минуты в неделю? Тяжелые или легкие веса использовать для наращивания мышечной массы? Может ли физическая активность улучшить психологическое состояние? Майкл Мосли объединяется с учеными, чьи последние исследования превращают общеизвестные знания о фитнесе с ног на голову расскажет, как сохранить физическую форму с умом!

качество: DVB

формат: TS/M2TS
Видео: [email protected] (16:9) AVC (H.264) [email protected], ~ 1736 kbps, 25fps
Аудио: Русский 48 kHz, MPEG Layer 2, 2 ch, ~192.00 kbps avg
 
Complete name : F:\Наладки\SD-фильмы\Правда о том, как быть в форме.ts
Format : MPEG-TS
File size : 717 MiB
Duration : 49 min 21 s
Overall bit rate mode : Variable
Overall bit rate : 2 030 kb/s

Video
ID : 401 (0x191)
Menu ID : 2608 (0xA30)
Format : AVC
Format/Info : Advanced Video Codec
Format profile : [email protected]
Format settings : CABAC / 4 Ref Frames
Format settings, CABAC : Yes
Format settings, Reference : 4 frames
Codec ID : 27
Duration : 49 min 21 s
Bit rate : 1 736 kb/s
Width : 720 pixels
Height : 576 pixels
Display aspect ratio : 16:9
Frame rate : 25.000 FPS
Standard : Component
Color space : YUV
Chroma subsampling : 4:2:0
Bit depth : 8 bits
Scan type : Interlaced
Scan type, store method : Separated fields
Scan order : Top Field First
Bits/(Pixel*Frame) : 0.167
Stream size : 613 MiB (86%)
Color range : Limited
Color primaries : BT.601 PAL
Transfer characteristics : BT.470 System B/G
Matrix coefficients : BT.470 System B/G

Audio
ID : 402 (0x192)
Menu ID : 2608 (0xA30)
Format : MPEG Audio
Format version : Version 1
Format profile : Layer 2
Codec ID : 3
Duration : 49 min 21 s
Bit rate mode : Constant
Bit rate : 192 kb/s
Channel(s) : 2 channels
Sampling rate : 48.0 kHz
Frame rate : 41.667 FPS (1152 SPF)
Compression mode : Lossy
Delay relative to video : -80 ms
Stream size : 67.8 MiB (9%)
Language : Russian

Этот торрент недоступен для скачивания без регистрации, однако доступен по публичной magnet-ссылке (источники с публичных трекеров). Перед использованием ссылки прочтите, пожалуйста Пользовательское соглашение, а также как можно дольше оставайтесь на раздаче! Для того, чтобы скачать сам торрент-файл (который видит больше источников), а также для того, чтобы поблагодарить релизера, вам необходимо зарегистрироваться. Если регистрироваться лень - вы можете также попробовать скачать релиз по нашим партнерским ссылкам ниже. Кроме того, зарегистрированным пользователям не показывается всплывающая реклама при скачивании.

[underver.se].t204397.torrent
Трекер: Зарегистрирован   [ 12.04.2021 16:55 ]  
Статус: проверено (by ARI71 at 12.04.2021 16:56)
Поблагодарили: 1 человек
Тип торрента: публичный - доступные источники с открытых трекеров: 
Размер: 717 MB (занимает 0.16 DVDR, для записи нужно 1 болванка DVDR/RW)
 
 

Яндекс.Метрика powered by Sphinx


В Н И М А Н И Е
Сайт не распространяет и не хранит электронные версии произведений, а лишь бесплатно и без коммерческой выгоды (не требуя взамен платы,
SMS и т.д.) предоставляет доступ к создаваемому пользователями каталогу ссылок на торрент-файлы, которые содержат только списки хеш-сумм.
Убедительная просьба с жалобами обращаться напрямую к пользователю, разместившему торрент файл.

Вверх