Loading...
Error

Голубая планета 2 / Blue Planet II (01-06 серии) / (Марк Браунлоу) [2017, документальный, путешествия, природа, флора, фауна, DVB] VO + Sub (rus)

Статистика раздачи
Размер:  6.25 GB   |    Зарегистрирован:  1 год 5 месяцев   |    Скачан:  2 раза

Полного источника не было: 9 дней

Сидов:  0  |  0 KB/s  ]   Личеров:  0  |  0 KB/s  ]

* - сиды/пиры с внешних источников

   
 
Автор Сообщение

ARI71 Пол:Муж

13-Апр-2021 06:31

Голубая планета 2 / Blue Planet II


Год выпуска: 2017
Страна: Великобритания, BBC Natural History Unit
Жанр: документальный, путешествия, природа, флора, фауна
Продолжительность: 6 x ~ 00:48:42
Перевод: студийный (одноголосый закадровый)
Русские субтитры: есть, softsub (SRT)
Режиссер: Марк Браунлоу

Описание: Семьдесят процентов поверхности нашей планеты покрывают моря и океаны, тем не менее они по-прежнему изучены мало. Иногда почти невозможно вообразить, какие причудливые существа скрываются под водой. Благодаря новым революционным технологиям мы можем проникнуть в новые миры и увидеть вблизи то, что совсем недавно невозможно представить.
Сегодня мы также пришли к осознанию того, что благополучие Мирового океана под угрозой. Изменения в нем происходят гораздо быстрее, чем когда бы то ни было в истории человечества. Мы подошли к решающему моменту, когда надо исследовать то, что происходит в глубинах океана, на его бескрайних просторах и побережьях.

качество: DVB

формат: MKV
Видео: [email protected] (16:9) AVC (H.264) [email protected], ~ 2971 kbps, 25 fps
Аудио: Русский 48 kHz, MPEG Layer 2, 2 ch, ~192.00 kbps avg
01. Мировой океан / One Ocean
Океанские течения оказывают решающее влияние на наш мир. Они доставляют солнечное тепло к полюсам от самого экватора. И таким образом почти везде создают климат, благоприятный для жизни. Океаны управляют погодой и производят кислород, они сохраняют здоровье нашей планеты. Но сейчас природа подает нам тревожные сигналы: состояние океанов, которое тысячелетиями оставалось относительно стабильным, сегодня быстро меняется.
02. Глубины океана / The Deep
Изучение глубин океана можно сравнить по сложности с исследованиями космоса. Мы больше знаем о поверхности Марса, чем о глубоких участках наших морей. Сегодня мы можем погрузиться в эту бездну и посмотреть, какие тайны скрываются там внизу. Это удивительно, но в глубинах океана живых существ больше, чем где-либо еще на земле.
03. Коралловые рифы / Coral Reefs
Кораллы строят себе дома из известняка в тропиках, в чистой воде на мелководье. Рифы занимают менее одной десятой процента океанского дна. Однако здесь обитает четверть всех известных морских видов животных. Рифы – это сложные, бесконечно разнообразные структуры, в них находит себе дом множество морских обитателей. Это подводные города, в которых кипит жизнь. И, как в любой метрополии, здесь каждый борется за место под солнцем.
04. Голубые просторы / Big Blue
Самое обширное и пустынное пространство в мире. Открытый океан. Он покрывает больше половины территории нашей планеты. Здесь негде спрятаться и почти нечем питаться. Морские просторы можно сравнить с пустыней. Существа, живущие на Голубых Просторах, возможно, удалены от нас больше, чем другие животные на планете. Но недостаточно для того, чтобы избежать негативных последствий человеческой деятельности.
05. Зеленые моря / Green Seas
На далеком севере после трех зимних месяцев без солнца мир ждет сигнала к началу весеннего сезона. С появлением дневного света начинается самое грандиозное превращение. Ветви бурых водорослей поднимаются к поверхности с помощью наполненных газом баллонов. Вскоре здесь появляются подводные леса. Их населяет множество морских обитателей. Эти зеленые моря наиболее благоприятны для проживания, но именно в этих водах ведется жесточайшая борьба.
06. Берега / Coasts
Наши побережья – это места, которые неожиданно меняются и таят большие возможности. Из всех океанских ареалов обитания берега самые изменчивые. Причина кроется в приливах и отливах. По мере того как Луна вращается вокруг нашей планеты, вода поднимается и опускается. Обычно два раза в день. При этом она создает самые быстро меняющиеся пейзажи на Земле. Нигде больше морские обитатели не сталкиваются с такими резкими переменами. Но сегодня они сталкиваются еще и с загрязнением воды, деградацией среды обитания и промысловой нагрузкой – с тем, что никогда не выпало бы на долю их предкам. Теперь животным, живущим на побережье, недостаточно просто осваивать свой мир. Им приходится бороться с испытаниями, которые берут свое начало в мире людей.
 
Complete name : D:\Торренты\Фильмы\Документальные\Голубая Планета_S2\01. Мировой океан.mkv
Format : Matroska
Format version : Version 4
File size : 1.10 GiB
Duration : 48 min 42 s
Overall bit rate : 3 227 kb/s
Encoded date : UTC 2019-11-12 18:25:13
Writing application : mkvmerge v6.6.0 ('The Edge Of The In Between') built on Dec 1 2013 17:55:00
Writing library : libebml v1.3.0 + libmatroska v1.4.1

Video
ID : 1
Format : AVC
Format/Info : Advanced Video Codec
Format profile : [email protected]
Format settings : CABAC / 4 Ref Frames
Format settings, CABAC : Yes
Format settings, Reference : 4 frames
Codec ID : V_MPEG4/ISO/AVC
Bit rate : 2 971 kb/s
Width : 720 pixels
Height : 576 pixels
Display aspect ratio : 16:9
Frame rate mode : Variable
Original frame rate : 25.000 FPS
Standard : Component
Color space : YUV
Chroma subsampling : 4:2:0
Bit depth : 8 bits
Scan type : Interlaced
Scan type, store method : Separated fields
Scan order : Top Field First
Default : Yes
Forced : No
Color range : Limited
Color primaries : BT.601 PAL
Transfer characteristics : BT.470 System B/G
Matrix coefficients : BT.470 System B/G

Audio
ID : 2
Format : MPEG Audio
Format version : Version 1
Format profile : Layer 2
Codec ID : A_MPEG/L2
Codec ID/Hint : MP2
Duration : 48 min 42 s
Bit rate mode : Constant
Bit rate : 192 kb/s
Channel(s) : 2 channels
Sampling rate : 48.0 kHz
Compression mode : Lossy
Stream size : 66.9 MiB (6%)
Language : Russian
Default : Yes
Forced : No

Text
ID : 3
Format : UTF-8
Codec ID : S_TEXT/UTF8
Codec ID/Info : UTF-8 Plain Text
Title : СВ-Дубль
Language : Russian
Default : No
Forced : No

Complete name : D:\Торренты\Фильмы\Документальные\Голубая Планета_S2\02. Глубины океана.mkv
Format : Matroska
Format version : Version 4
File size : 731 MiB
Duration : 51 min 19 s
Overall bit rate : 1 991 kb/s
Encoded date : UTC 2019-12-08 14:58:08
Writing application : mkvmerge v6.6.0 ('The Edge Of The In Between') built on Dec 1 2013 17:55:00
Writing library : libebml v1.3.0 + libmatroska v1.4.1

Video
ID : 1
Format : AVC
Format/Info : Advanced Video Codec
Format profile : [email protected]
Format settings : CABAC / 4 Ref Frames
Format settings, CABAC : Yes
Format settings, Reference : 4 frames
Codec ID : V_MPEG4/ISO/AVC
Bit rate : 1 760 kb/s
Width : 720 pixels
Height : 576 pixels
Display aspect ratio : 16:9
Frame rate mode : Variable
Original frame rate : 25.000 FPS
Standard : Component
Color space : YUV
Chroma subsampling : 4:2:0
Bit depth : 8 bits
Scan type : Interlaced
Scan type, store method : Separated fields
Scan order : Top Field First
Default : Yes
Forced : No
Color range : Limited
Color primaries : BT.601 PAL
Transfer characteristics : BT.470 System B/G
Matrix coefficients : BT.470 System B/G

Audio
ID : 2
Format : MPEG Audio
Format version : Version 1
Format profile : Layer 2
Codec ID : A_MPEG/L2
Codec ID/Hint : MP2
Duration : 51 min 19 s
Bit rate mode : Constant
Bit rate : 192 kb/s
Channel(s) : 2 channels
Sampling rate : 48.0 kHz
Compression mode : Lossy
Stream size : 70.5 MiB (10%)
Language : Russian
Default : Yes
Forced : No

Text
ID : 3
Format : UTF-8
Codec ID : S_TEXT/UTF8
Codec ID/Info : UTF-8 Plain Text
Title : СВ-Дубль
Language : Russian
Default : No
Forced : No

Complete name : D:\Торренты\Фильмы\Документальные\Голубая Планета_S2\03. Коралловые рифы.mkv
Format : Matroska
Format version : Version 4
File size : 1.05 GiB
Duration : 48 min 47 s
Overall bit rate : 3 078 kb/s
Encoded date : UTC 2019-12-08 14:58:48
Writing application : mkvmerge v6.6.0 ('The Edge Of The In Between') built on Dec 1 2013 17:55:00
Writing library : libebml v1.3.0 + libmatroska v1.4.1

Video
ID : 1
Format : AVC
Format/Info : Advanced Video Codec
Format profile : [email protected]
Format settings : CABAC / 4 Ref Frames
Format settings, CABAC : Yes
Format settings, Reference : 4 frames
Format settings, GOP : M=4, N=28
Codec ID : V_MPEG4/ISO/AVC
Bit rate : 2 825 kb/s
Width : 720 pixels
Height : 576 pixels
Display aspect ratio : 16:9
Frame rate mode : Variable
Original frame rate : 25.000 FPS
Standard : Component
Color space : YUV
Chroma subsampling : 4:2:0
Bit depth : 8 bits
Scan type : Interlaced
Scan type, store method : Separated fields
Scan order : Top Field First
Default : Yes
Forced : No
Color range : Limited
Color primaries : BT.601 PAL
Transfer characteristics : BT.470 System B/G
Matrix coefficients : BT.470 System B/G

Audio
ID : 2
Format : MPEG Audio
Format version : Version 1
Format profile : Layer 2
Codec ID : A_MPEG/L2
Codec ID/Hint : MP2
Duration : 48 min 47 s
Bit rate mode : Constant
Bit rate : 192 kb/s
Channel(s) : 2 channels
Sampling rate : 48.0 kHz
Compression mode : Lossy
Stream size : 67.0 MiB (6%)
Language : Russian
Default : Yes
Forced : No

Text
ID : 3
Format : UTF-8
Codec ID : S_TEXT/UTF8
Codec ID/Info : UTF-8 Plain Text
Title : СВ-Дубль
Language : Russian
Default : No
Forced : No

Complete name : D:\Торренты\Фильмы\Документальные\Голубая Планета_S2\04. Голубые просторы.mkv
Format : Matroska
Format version : Version 4
File size : 1.11 GiB
Duration : 49 min 50 s
Overall bit rate : 3 184 kb/s
Encoded date : UTC 2019-12-08 14:59:31
Writing application : mkvmerge v6.6.0 ('The Edge Of The In Between') built on Dec 1 2013 17:55:00
Writing library : libebml v1.3.0 + libmatroska v1.4.1

Video
ID : 1
Format : AVC
Format/Info : Advanced Video Codec
Format profile : [email protected]
Format settings : CABAC / 4 Ref Frames
Format settings, CABAC : Yes
Format settings, Reference : 4 frames
Format settings, GOP : M=4, N=28
Codec ID : V_MPEG4/ISO/AVC
Bit rate : 2 928 kb/s
Width : 720 pixels
Height : 576 pixels
Display aspect ratio : 16:9
Frame rate mode : Variable
Original frame rate : 25.000 FPS
Standard : Component
Color space : YUV
Chroma subsampling : 4:2:0
Bit depth : 8 bits
Scan type : Interlaced
Scan type, store method : Separated fields
Scan order : Top Field First
Default : Yes
Forced : No
Color range : Limited
Color primaries : BT.601 PAL
Transfer characteristics : BT.470 System B/G
Matrix coefficients : BT.470 System B/G

Audio
ID : 2
Format : MPEG Audio
Format version : Version 1
Format profile : Layer 2
Codec ID : A_MPEG/L2
Codec ID/Hint : MP2
Duration : 49 min 50 s
Bit rate mode : Constant
Bit rate : 192 kb/s
Channel(s) : 2 channels
Sampling rate : 48.0 kHz
Compression mode : Lossy
Stream size : 68.5 MiB (6%)
Language : Russian
Default : Yes
Forced : No

Text
ID : 3
Format : UTF-8
Codec ID : S_TEXT/UTF8
Codec ID/Info : UTF-8 Plain Text
Title : СВ-Дубль
Language : Russian
Default : No
Forced : No

Complete name : D:\Торренты\Фильмы\Документальные\Голубая Планета_S2\05. Зеленые моря.mkv
Format : Matroska
Format version : Version 4
File size : 1.25 GiB
Duration : 51 min 1 s
Overall bit rate : 3 503 kb/s
Encoded date : UTC 2019-12-08 15:00:14
Writing application : mkvmerge v6.6.0 ('The Edge Of The In Between') built on Dec 1 2013 17:55:00
Writing library : libebml v1.3.0 + libmatroska v1.4.1

Video
ID : 1
Format : AVC
Format/Info : Advanced Video Codec
Format profile : [email protected]
Format settings : CABAC / 4 Ref Frames
Format settings, CABAC : Yes
Format settings, Reference : 4 frames
Codec ID : V_MPEG4/ISO/AVC
Bit rate : 3 241 kb/s
Width : 720 pixels
Height : 576 pixels
Display aspect ratio : 16:9
Frame rate mode : Variable
Original frame rate : 25.000 FPS
Standard : Component
Color space : YUV
Chroma subsampling : 4:2:0
Bit depth : 8 bits
Scan type : Interlaced
Scan type, store method : Separated fields
Scan order : Top Field First
Default : Yes
Forced : No
Color range : Limited
Color primaries : BT.601 PAL
Transfer characteristics : BT.470 System B/G
Matrix coefficients : BT.470 System B/G

Audio
ID : 2
Format : MPEG Audio
Format version : Version 1
Format profile : Layer 2
Codec ID : A_MPEG/L2
Codec ID/Hint : MP2
Duration : 51 min 1 s
Bit rate mode : Constant
Bit rate : 192 kb/s
Channel(s) : 2 channels
Sampling rate : 48.0 kHz
Compression mode : Lossy
Stream size : 70.1 MiB (5%)
Language : Russian
Default : Yes
Forced : No

Text
ID : 3
Format : UTF-8
Codec ID : S_TEXT/UTF8
Codec ID/Info : UTF-8 Plain Text
Title : СВ-Дубль
Language : Russian
Default : No
Forced : No

Complete name : D:\Торренты\Фильмы\Документальные\Голубая Планета_S2\06. Берега.mkv
Format : Matroska
Format version : Version 4
File size : 1.04 GiB
Duration : 47 min 51 s
Overall bit rate : 3 098 kb/s
Encoded date : UTC 2019-12-14 15:49:22
Writing application : mkvmerge v6.6.0 ('The Edge Of The In Between') built on Dec 1 2013 17:55:00
Writing library : libebml v1.3.0 + libmatroska v1.4.1

Video
ID : 1
Format : AVC
Format/Info : Advanced Video Codec
Format profile : [email protected]
Format settings : CABAC / 4 Ref Frames
Format settings, CABAC : Yes
Format settings, Reference : 4 frames
Format settings, GOP : M=4, N=28
Codec ID : V_MPEG4/ISO/AVC
Bit rate : 2 845 kb/s
Width : 720 pixels
Height : 576 pixels
Display aspect ratio : 16:9
Frame rate mode : Variable
Original frame rate : 25.000 FPS
Standard : Component
Color space : YUV
Chroma subsampling : 4:2:0
Bit depth : 8 bits
Scan type : Interlaced
Scan type, store method : Separated fields
Scan order : Top Field First
Default : Yes
Forced : No
Color range : Limited
Color primaries : BT.601 PAL
Transfer characteristics : BT.470 System B/G
Matrix coefficients : BT.470 System B/G

Audio
ID : 2
Format : MPEG Audio
Format version : Version 1
Format profile : Layer 2
Codec ID : A_MPEG/L2
Codec ID/Hint : MP2
Duration : 47 min 51 s
Bit rate mode : Constant
Bit rate : 192 kb/s
Channel(s) : 2 channels
Sampling rate : 48.0 kHz
Compression mode : Lossy
Stream size : 65.7 MiB (6%)
Language : Russian
Default : Yes
Forced : No

Text
ID : 3
Format : UTF-8
Codec ID : S_TEXT/UTF8
Codec ID/Info : UTF-8 Plain Text
Title : СВ-Дубль
Language : Russian
Default : No
Forced : No

Этот торрент недоступен для скачивания без регистрации, однако доступен по публичной magnet-ссылке (источники с публичных трекеров). Перед использованием ссылки прочтите, пожалуйста Пользовательское соглашение, а также как можно дольше оставайтесь на раздаче! Для того, чтобы скачать сам торрент-файл (который видит больше источников), а также для того, чтобы поблагодарить релизера, вам необходимо зарегистрироваться. Если регистрироваться лень - вы можете также попробовать скачать релиз по нашим партнерским ссылкам ниже. Кроме того, зарегистрированным пользователям не показывается всплывающая реклама при скачивании.

[underver.se].t204426.torrent
Трекер: Зарегистрирован   [ 13.04.2021 06:31 ]  
Статус: проверено (by ARI71 at 13.04.2021 06:33)
Поблагодарили: пока никто не поблагодарил...
Тип торрента: публичный - доступные источники с открытых трекеров: 
Размер: 6.25 GB (занимает 1.43 DVDR, для записи нужно 2 болванки DVDR/RW)
 
 

Яндекс.Метрика powered by Sphinx


В Н И М А Н И Е
Сайт не распространяет и не хранит электронные версии произведений, а лишь бесплатно и без коммерческой выгоды (не требуя взамен платы,
SMS и т.д.) предоставляет доступ к создаваемому пользователями каталогу ссылок на торрент-файлы, которые содержат только списки хеш-сумм.
Убедительная просьба с жалобами обращаться напрямую к пользователю, разместившему торрент файл.

Вверх