Loading...
Error

Уродливая красота / Ugly Beauty (Вальдемар Янушчак) [2009 г., документальный, арт-хаус, концептуальное искусство, DVB] DVO

Статистика раздачи
Размер:  864 MB   |    Зарегистрирован:  1 год 5 месяцев   |    Скачан:  1 раз

Полного источника не было: 1 год 5 месяцев

Сидов:  0  |  0 KB/s  ]   Личеров:  0  |  0 KB/s  ]

* - сиды/пиры с внешних источников

   
 
Автор Сообщение

ARI71 Пол:Муж

13-Апр-2021 16:54

Уродливая красота / Ugly Beauty


Год выпуска: 2009
Производство: Великобритания, ZCZ Films, British Broadcasting Corporation (BBC)
Жанр: документальный, арт-хаус, концептуальное искусство
Режиссер: Вальдемар Янушчак
Участники: Вальдемар Янушчак

Описание: "Красота есть во всем, но не всем дано это видеть". (Конфуций)
Влиятельные арт-критики утверждают, что красота исчезает из современного искусства. Это побудило их на публикации целого цикла книг, в которых говорится, что современное искусство уже не в состоянии продемонстрировать настоящую красоту. Искусствовед Вальдемар Янушчак категорически не согласен с этим мнением. Он отправляется на поиски красоты в искусстве и находит ее в работах Дамиана Херста, Джеймса Турелла и Тэцуо Мияджима.

Продолжительность: 00:59:42

Качество видео: DVB
Перевод: двухголосый закадровый, профессиональный
Формат: mpg
Видео: MPEG-2, [email protected], ~1792 Kbps
Аудио: MP2, 2 ch, 192 Kbps
 
Общее
Полное имя : F:\КИНО\[apreder]Ugly_Beauty(2009)DVB.mpg
Формат : MPEG-PS
Размер файла : 864 Мбайт
Продолжительность : 59 м. 42 с.
Режим общего битрейта : Переменный
Общий поток : 2024 Кбит/сек

Видео
Идентификатор : 224 (0xE0)
Формат : MPEG Video
Версия формата : Version 2
Профиль формата : [email protected]
Настройки формата : CustomMatrix / BVOP
Параметр BVOP формата : Да
Параметр матрицы формата : Выборочная
Параметр GOP формата : Variable
Структура изображения : Frame
Продолжительность : 59 м. 42 с.
Вид битрейта : Переменный
Битрейт : 1792 Кбит/сек
Ширина : 720 пикселей
Высота : 576 пикселей
Соотношение сторон : 4:3
Частота кадров : 25,000 кадров/сек
Стандарт вещания : PAL
Цветовое пространство : YUV
Субдискретизация насыщенности : 4:2:0
Битовая глубина : 8 бит
Тип развёртки : Чересстрочная
Порядок развёртки : Верхнее поле первое
Метод сжатия : С потерями
Бит/(Пиксели*Кадры) : 0.173
Временной код первого кадра : 00:00:00:00
Оригинал временного кода : Group of pictures header
GOP, открыто/закрыто : Открыто
GOP, открыто/закрыто на первом кадре : Закрыто
Размер потока : 765 Мбайт (89%)

Аудио
Идентификатор : 192 (0xC0)
Формат : MPEG Audio
Версия формата : Version 1
Профиль формата : Layer 2
Продолжительность : 59 м. 42 с.
Вид битрейта : Постоянный
Битрейт : 192 Кбит/сек
Каналы : 2 канала
Частота : 48,0 КГц
Метод сжатия : С потерями
Размер потока : 82,0 Мбайт (9%)

Скриншоты:
pic pic pic pic

Этот торрент недоступен для скачивания без регистрации, однако доступен по публичной magnet-ссылке (источники с публичных трекеров). Перед использованием ссылки прочтите, пожалуйста Пользовательское соглашение, а также как можно дольше оставайтесь на раздаче! Для того, чтобы скачать сам торрент-файл (который видит больше источников), а также для того, чтобы поблагодарить релизера, вам необходимо зарегистрироваться. Если регистрироваться лень - вы можете также попробовать скачать релиз по нашим партнерским ссылкам ниже. Кроме того, зарегистрированным пользователям не показывается всплывающая реклама при скачивании.

[underver.se].t204447.torrent
Трекер: Зарегистрирован   [ 13.04.2021 16:54 ]  
Статус: проверено (by ARI71 at 13.04.2021 16:55)
Поблагодарили: пока никто не поблагодарил...
Тип торрента: публичный - доступные источники с открытых трекеров: 
Размер: 864 MB (занимает 0.19 DVDR, для записи нужно 1 болванка DVDR/RW)
 
 

Яндекс.Метрика powered by Sphinx


В Н И М А Н И Е
Сайт не распространяет и не хранит электронные версии произведений, а лишь бесплатно и без коммерческой выгоды (не требуя взамен платы,
SMS и т.д.) предоставляет доступ к создаваемому пользователями каталогу ссылок на торрент-файлы, которые содержат только списки хеш-сумм.
Убедительная просьба с жалобами обращаться напрямую к пользователю, разместившему торрент файл.

Вверх