Loading...
Error

(Psychedelic Rock, Folk Rock) Инна Пиварс и Гистрионы - Певчие Птицы В Лесу Берендеев (2021) [FLAC (Tracks+.Cue), Lossless]

Статистика раздачи
Размер:  225 MB   |    Зарегистрирован:  1 год 4 месяца   |    Скачан:  2 раза

Полного источника не было: 7 месяцев

Сидов:  0  |  0 KB/s  ]   Личеров:  0  |  0 KB/s  ]

* - сиды/пиры с внешних источников

   
 
Автор Сообщение

Бишеп Пол:Муж

01-Май-2021 16:00

Инна Пиварс и Гистрионы - Певчие Птицы В Лесу Берендеев

Жанр: Psychedelic Rock, Folk Rock
Год выпуска: 2021
Носитель: CD
Производитель диска: Shining Sioux Records - MACD-017
Аудиокодек: FLAC
Тип рипа: Tracks+.CUE
Битрейт аудио: lossless
Продолжительность: 00:37:11


Треклист:
01. Певчие птицы в лесу Берендеев - 1 (intro) (01:33)
02. Синий Лес (03:46)
03. Восточная (02:58)
04. Аленушка (04:31)
05. За стеной блуждающих снов (02:56)
06. Узор на греческой вазе (03:00)
07. Предание Девичьего поля (03:48)
08. Гонка в ночи (инстр.) (02:17)
09. В тяжелой броне (03:06)
10. В старом замке (03:37)
11. Корабли (03:13)
12. Певчие птицы в лесу Берендеев - 2 (outro) (02:26)

Exact Audio Copy V1.6 from 23. October 2020 

EAC extraction logfile from 30. April 2021, 2:47

Инна Пиварс и Гистрионы / Певчие птицы в лесу Берендеев

Used drive : HL-DT-STDVDRAM GSA-T20N Adapter: 1 ID: 0

Read mode : Secure
Utilize accurate stream : Yes
Defeat audio cache : Yes
Make use of C2 pointers : No

Read offset correction : 667
Overread into Lead-In and Lead-Out : No
Fill up missing offset samples with silence : Yes
Delete leading and trailing silent blocks : No
Null samples used in CRC calculations : Yes
Used interface : Native Win32 interface for Win NT & 2000
Gap handling : Appended to previous track

Used output format : User Defined Encoder
Selected bitrate : 1024 kBit/s
Quality : High
Add ID3 tag : No
Command line compressor : C:\Program Files (x86)\Exact Audio Copy\FLAC\FLAC.EXE
Additional command line options : -8 -V -T "TITLE=%title%" -T "ARTIST=%artist%" -T "ALBUMARTIST=%albumartist%" -T "ALBUM=%albumtitle%" -T "DATE=%year%" -T "TRACKNUMBER=%tracknr%" -T "TRACKTOTAL=%numtracks%" -T "GENRE=%genre%" -T "COMMENT=%comment%" -T "PERFORMER=%albuminterpret%" -T "COMPOSER=%composer%" %source% -o %dest%

TOC of the extracted CD

Track | Start | Length | Start sector | End sector
---------------------------------------------------------
1 | 0:00.00 | 1:33.04 | 0 | 6978
2 | 1:33.04 | 3:46.51 | 6979 | 23979
3 | 5:19.55 | 2:58.49 | 23980 | 37378
4 | 8:18.29 | 4:31.08 | 37379 | 57711
5 | 12:49.37 | 2:56.01 | 57712 | 70912
6 | 15:45.38 | 3:00.01 | 70913 | 84413
7 | 18:45.39 | 3:48.01 | 84414 | 101514
8 | 22:33.40 | 2:17.01 | 101515 | 111790
9 | 24:50.41 | 3:06.39 | 111791 | 125779
10 | 27:57.05 | 3:37.21 | 125780 | 142075
11 | 31:34.26 | 3:13.39 | 142076 | 156589
12 | 34:47.65 | 2:26.00 | 156590 | 167539

Track 1

Filename C:\Users\77118\Music\Певчие птицы в лесу Берендеев\01 Певчие птицы в лесу Берендеев - 1 (intro).wav

Pre-gap length 0:00:02.00

Peak level 90.0 %
Extraction speed 1.0 X
Track quality 100.0 %
Test CRC 4A53BFEC
Copy CRC 4A53BFEC
Track not present in AccurateRip database
Copy OK

Track 2

Filename C:\Users\77118\Music\Певчие птицы в лесу Берендеев\02 Синий Лес.wav

Peak level 90.0 %
Extraction speed 1.2 X
Track quality 100.0 %
Test CRC 81CCA86A
Copy CRC 81CCA86A
Track not present in AccurateRip database
Copy OK

Track 3

Filename C:\Users\77118\Music\Певчие птицы в лесу Берендеев\03 Восточная.wav

Peak level 90.0 %
Extraction speed 1.3 X
Track quality 100.0 %
Test CRC A3EDE474
Copy CRC A3EDE474
Track not present in AccurateRip database
Copy OK

Track 4

Filename C:\Users\77118\Music\Певчие птицы в лесу Берендеев\04 Аленушка.wav

Peak level 90.0 %
Extraction speed 1.5 X
Track quality 100.0 %
Test CRC AFA1BCFC
Copy CRC AFA1BCFC
Track not present in AccurateRip database
Copy OK

Track 5

Filename C:\Users\77118\Music\Певчие птицы в лесу Берендеев\05 За стеной блуждающих снов.wav

Peak level 90.0 %
Extraction speed 1.5 X
Track quality 100.0 %
Test CRC 954ED107
Copy CRC 954ED107
Track not present in AccurateRip database
Copy OK

Track 6

Filename C:\Users\77118\Music\Певчие птицы в лесу Берендеев\06 Узор на греческой вазе.wav

Peak level 90.0 %
Extraction speed 1.6 X
Track quality 100.0 %
Test CRC 1A6291DE
Copy CRC 1A6291DE
Track not present in AccurateRip database
Copy OK

Track 7

Filename C:\Users\77118\Music\Певчие птицы в лесу Берендеев\07 Предание Девичьего поля.wav

Peak level 90.0 %
Extraction speed 1.7 X
Track quality 100.0 %
Test CRC E8C84635
Copy CRC E8C84635
Track not present in AccurateRip database
Copy OK

Track 8

Filename C:\Users\77118\Music\Певчие птицы в лесу Берендеев\08 Гонка в ночи (инстр.).wav

Peak level 90.0 %
Extraction speed 1.6 X
Track quality 100.0 %
Test CRC C6309B08
Copy CRC C6309B08
Track not present in AccurateRip database
Copy OK

Track 9

Filename C:\Users\77118\Music\Певчие птицы в лесу Берендеев\09 В тяжелой броне.wav

Peak level 90.0 %
Extraction speed 1.7 X
Track quality 100.0 %
Test CRC 1835986D
Copy CRC 1835986D
Track not present in AccurateRip database
Copy OK

Track 10

Filename C:\Users\77118\Music\Певчие птицы в лесу Берендеев\10 В старом замке.wav

Peak level 90.0 %
Extraction speed 1.9 X
Track quality 100.0 %
Test CRC DCE59FED
Copy CRC DCE59FED
Track not present in AccurateRip database
Copy OK

Track 11

Filename C:\Users\77118\Music\Певчие птицы в лесу Берендеев\11 Корабли.wav

Peak level 90.0 %
Extraction speed 1.6 X
Track quality 99.9 %
Test CRC BB6983FA
Copy CRC BB6983FA
Track not present in AccurateRip database
Copy OK

Track 12

Filename C:\Users\77118\Music\Певчие птицы в лесу Берендеев\12 Певчие птицы в лесу Берендеев - 2 (outro).wav

Peak level 89.9 %
Extraction speed 1.9 X
Track quality 100.0 %
Test CRC 8365AA74
Copy CRC 8365AA74
Track not present in AccurateRip database
Copy OK

None of the tracks are present in the AccurateRip database

No errors occurred

End of status report

---- CUETools DB Plugin V2.1.6

[CTDB TOCID: Bly6kdAtNJwaCv7vBZz.3u3X_Ls-] found
Submit result: already submitted
Track | CTDB Status
1 | (1/1) Accurately ripped
2 | (1/1) Accurately ripped
3 | (1/1) Accurately ripped
4 | (1/1) Accurately ripped
5 | (1/1) Accurately ripped
6 | (1/1) Accurately ripped
7 | (1/1) Accurately ripped
8 | (1/1) Accurately ripped
9 | (1/1) Accurately ripped
10 | (1/1) Accurately ripped
11 | (1/1) Accurately ripped
12 | (1/1) Accurately ripped

==== Log checksum 1C106F402FC940001B079AF4AF11E06653613B7556E81B3101CBEF18253B30AD ====
REM GENRE Retro 
REM DATE 2021
REM DISCID A908B90C
REM COMMENT "ExactAudioCopy v1.6"
PERFORMER "Инна Пиварс и Гистрионы"
TITLE "Певчие птицы в лесу Берендеев"
REM COMPOSER ""
FILE "01 Певчие птицы в лесу Берендеев - 1 (intro).wav" WAVE
TRACK 01 AUDIO
TITLE "Певчие птицы в лесу Берендеев - 1 (intro)"
PERFORMER "Инна Пиварс и Гистрионы"
REM COMPOSER ""
INDEX 01 00:00:00
FILE "02 Синий Лес.wav" WAVE
TRACK 02 AUDIO
TITLE "Синий Лес"
PERFORMER "Инна Пиварс и Гистрионы"
REM COMPOSER ""
INDEX 01 00:00:00
FILE "03 Восточная.wav" WAVE
TRACK 03 AUDIO
TITLE "Восточная"
PERFORMER "Инна Пиварс и Гистрионы"
REM COMPOSER ""
INDEX 01 00:00:00
FILE "04 Аленушка.wav" WAVE
TRACK 04 AUDIO
TITLE "Аленушка"
PERFORMER "Инна Пиварс и Гистрионы"
REM COMPOSER ""
INDEX 01 00:00:00
FILE "05 За стеной блуждающих снов.wav" WAVE
TRACK 05 AUDIO
TITLE "За стеной блуждающих снов"
PERFORMER "Инна Пиварс и Гистрионы"
REM COMPOSER ""
INDEX 01 00:00:00
FILE "06 Узор на греческой вазе.wav" WAVE
TRACK 06 AUDIO
TITLE "Узор на греческой вазе"
PERFORMER "Инна Пиварс и Гистрионы"
REM COMPOSER ""
INDEX 01 00:00:00
FILE "07 Предание Девичьего поля.wav" WAVE
TRACK 07 AUDIO
TITLE "Предание Девичьего поля"
PERFORMER "Инна Пиварс и Гистрионы"
REM COMPOSER ""
INDEX 01 00:00:00
FILE "08 Гонка в ночи (инстр.).wav" WAVE
TRACK 08 AUDIO
TITLE "Гонка в ночи (инстр.)"
PERFORMER "Инна Пиварс и Гистрионы"
REM COMPOSER ""
INDEX 01 00:00:00
FILE "09 В тяжелой броне.wav" WAVE
TRACK 09 AUDIO
TITLE "В тяжелой броне"
PERFORMER "Инна Пиварс и Гистрионы"
REM COMPOSER ""
INDEX 01 00:00:00
FILE "10 В старом замке.wav" WAVE
TRACK 10 AUDIO
TITLE "В старом замке"
PERFORMER "Инна Пиварс и Гистрионы"
REM COMPOSER ""
INDEX 01 00:00:00
FILE "11 Корабли.wav" WAVE
TRACK 11 AUDIO
TITLE "Корабли"
PERFORMER "Инна Пиварс и Гистрионы"
REM COMPOSER ""
INDEX 01 00:00:00
FILE "12 Певчие птицы в лесу Берендеев - 2 (outro).wav" WAVE
TRACK 12 AUDIO
TITLE "Певчие птицы в лесу Берендеев - 2 (outro)"
PERFORMER "Инна Пиварс и Гистрионы"
REM COMPOSER ""
INDEX 01 00:00:00

Этот торрент недоступен для скачивания без регистрации, однако доступен по публичной magnet-ссылке (источники с публичных трекеров). Перед использованием ссылки прочтите, пожалуйста Пользовательское соглашение, а также как можно дольше оставайтесь на раздаче! Для того, чтобы скачать сам торрент-файл (который видит больше источников), а также для того, чтобы поблагодарить релизера, вам необходимо зарегистрироваться. Если регистрироваться лень - вы можете также попробовать скачать релиз по нашим партнерским ссылкам ниже. Кроме того, зарегистрированным пользователям не показывается всплывающая реклама при скачивании.

[underver.se].t206223.torrent
Трекер: Зарегистрирован   [ 01.05.2021 16:00 ]  
Статус: проверено (by Бишеп at 01.05.2021 16:00)
Поблагодарили: пока никто не поблагодарил...
Тип торрента: публичный - доступные источники с открытых трекеров: 
Размер: 225 MB (занимает 0.05 DVDR, для записи нужно 1 болванка DVDR/RW)
 
 

Яндекс.Метрика powered by Sphinx


В Н И М А Н И Е
Сайт не распространяет и не хранит электронные версии произведений, а лишь бесплатно и без коммерческой выгоды (не требуя взамен платы,
SMS и т.д.) предоставляет доступ к создаваемому пользователями каталогу ссылок на торрент-файлы, которые содержат только списки хеш-сумм.
Убедительная просьба с жалобами обращаться напрямую к пользователю, разместившему торрент файл.

Вверх