Loading...
Error

Шкала времени. Через Ад во имя Гитлера / Time watch. Through Heel for Hitler (Джонатан Хакер) [2003 г., документальный, история, постановочный, TVRip-AVC] Dub

Статистика раздачи
Размер:  701 MB   |    Зарегистрирован:  1 год 4 месяца   |    Скачан:  0 раз

Полного источника не было: 9 месяцев

Сидов:  0  |  0 KB/s  ]   Личеров:  0  |  0 KB/s  ]

* - сиды/пиры с внешних источников

   
 
Автор Сообщение

ARI71 Пол:Муж

09-Май-2021 14:34

Шкала времени. Через Ад во имя Гитлера / Time watch. Through Heel for Hitler


Год выпуска: 2003
Жанр: документальный, история, постановочный
Страна: Великобритания BBC
Режиссер: Джонатан Хакер
В ролях: Бен Сильверстоун, Петр Адамчук, Джон Эдмодсон, Иоланта Ягодчинска, Цезарь Лукашевич
Сюжет фильма:
Рассказ - исповедь солдата танкиста гитлеровской Германии о его детстве, юности, военной молодости. Старый человек вспоминает о том, как он воевал в России, через какие тяготы и лишения прошел он и его товарищи, какие преступления совершил. Прошлое тяготит его. Но вот вопрос: достоин ли он сочувствия?
Качество видео: TVRip-AVC

Продолжительность: 00:49:00
Формат: MKV
Видео: MPEG-4 AVC, [email protected], 1868 kbps
Аудио: русский, дублированный, AAC, 2 ch, 128 kbps

Код:

Общее
Уникальный идентификатор : 27638739376159709221702486526869356265 (0x14CB070F6A454635BA5ECFBDC6FFBEE9)
Полное имя : C:\Cherez Ad vo imya Gitlera. TVRip.x264.rip by Pshichko66.mkv
Формат : Matroska
Версия формата : Version 4
Размер файла : 701 Мбайт
Продолжительность : 49 м. 0 с.
Общий поток : 1998 Кбит/сек
Дата кодирования : UTC 2021-05-09 11:36:23
Программа кодирования : mkvmerge v51.0.0 ('I Wish') 64-bit
Библиотека кодирования : libebml v1.4.0 + libmatroska v1.6.2

Видео
Идентификатор : 1
Формат : AVC
Формат/Информация : Advanced Video Codec
Профиль формата : [email protected]
Настройки формата : CABAC / 9 Ref Frames
Параметр CABAC формата : Да
Параметр RefFrames формата : 9 кадров
Идентификатор кодека : V_MPEG4/ISO/AVC
Продолжительность : 49 м. 0 с.
Битрейт : 1868 Кбит/сек
Ширина : 720 пикселей
Высота : 576 пикселей
Соотношение сторон : 4:3
Режим частоты кадров : Постоянный
Частота кадров : 25,000 кадров/сек
Стандарт вещания : PAL
Цветовое пространство : YUV
Субдискретизация насыщенности : 4:2:0
Битовая глубина : 8 бит
Тип развёртки : Прогрессивная
Бит/(Пиксели*Кадры) : 0.180
Размер потока : 655 Мбайт (93%)
Библиотека кодирования : x264 core 161 r3020 d198931
Настройки программы : cabac=1 / ref=9 / deblock=1:-1:-1 / analyse=0x3:0x133 / me=tesa / subme=11 / psy=1 / psy_rd=1.05:0.15 / mixed_ref=1 / me_range=4 / chroma_me=1 / trellis=2 / 8x8dct=1 / cqm=0 / deadzone=21,11 / fast_pskip=0 / chroma_qp_offset=-3 / threads=5 / lookahead_threads=1 / sliced_threads=0 / nr=0 / decimate=1 / interlaced=0 / bluray_compat=0 / constrained_intra=0 / bframes=6 / b_pyramid=2 / b_adapt=2 / b_bias=0 / direct=3 / weightb=1 / open_gop=0 / weightp=2 / keyint=250 / keyint_min=25 / scenecut=40 / intra_refresh=0 / rc=2pass / mbtree=0 / bitrate=1868 / ratetol=1.0 / qcomp=0.70 / qpmin=3 / qpmax=69 / qpstep=4 / cplxblur=20.0 / qblur=0.5 / ip_ratio=1.40 / pb_ratio=1.30 / aq=2:1.00
Default : Да
Forced : Нет

Аудио
Идентификатор : 2
Формат : AAC LC
Формат/Информация : Advanced Audio Codec Low Complexity
Идентификатор кодека : A_AAC-2
Продолжительность : 49 м. 0 с.
Битрейт : 128 Кбит/сек
Каналы : 2 канала
Channel layout : L R
Частота : 48,0 КГц
Частота кадров : 46,875 кадров/сек (1024 SPF)
Метод сжатия : С потерями
Размер потока : 44,9 Мбайт (6%)
Default : Да
Forced : Нет

Этот торрент недоступен для скачивания без регистрации, однако доступен по публичной magnet-ссылке (источники с публичных трекеров). Перед использованием ссылки прочтите, пожалуйста Пользовательское соглашение, а также как можно дольше оставайтесь на раздаче! Для того, чтобы скачать сам торрент-файл (который видит больше источников), а также для того, чтобы поблагодарить релизера, вам необходимо зарегистрироваться. Если регистрироваться лень - вы можете также попробовать скачать релиз по нашим партнерским ссылкам ниже. Кроме того, зарегистрированным пользователям не показывается всплывающая реклама при скачивании.

[underver.se].t206934.torrent
Трекер: Зарегистрирован   [ 09.05.2021 14:34 ]  
Статус: проверено (by ARI71 at 09.05.2021 14:35)
Поблагодарили: пока никто не поблагодарил...
Тип торрента: публичный - доступные источники с открытых трекеров: 
Размер: 701 MB (занимает 0.16 DVDR, для записи нужно 1 болванка DVDR/RW)
 
 

Яндекс.Метрика powered by Sphinx


В Н И М А Н И Е
Сайт не распространяет и не хранит электронные версии произведений, а лишь бесплатно и без коммерческой выгоды (не требуя взамен платы,
SMS и т.д.) предоставляет доступ к создаваемому пользователями каталогу ссылок на торрент-файлы, которые содержат только списки хеш-сумм.
Убедительная просьба с жалобами обращаться напрямую к пользователю, разместившему торрент файл.

Вверх