Loading...
Error

#Яжотец / Сезон: 1 / Серии: 1-21 из 21 (Рустам Мосафир, Константин Смирнов (VI), Константин Колесов) [2021, Комедия, WEB-DL 1080p]

Статистика раздачи
Размер:  16,04 GB   |    Зарегистрирован:  17 дней   |    Скачан:  1 раз

Полного источника не было: 4 дня

Сидов:  0  |  0 KB/s  ]   Личеров:  0  |  0 KB/s  ]

* - сиды/пиры с внешних источников

   
 
Автор Сообщение

Konin Пол:Муж

20-Сен-2021 21:45

#Яжотец

Год выпуска: 2021
Страна: Россия
Студия: Comedy Club Production
Жанр: Комедия
Продолжительность: ~ 00:24:00 - Серия
Перевод: Не требуется
Режиссер:
Рустам Мосафир, Константин Смирнов (VI), Константин Колесов
В ролях:
Гоша Куценко, Алексей Родионов (IV), Екатерина Вуличенко, Сергей Масленников (II), Александр Обласов
О фильме:
Михаилу 44 года, в жизни он особо не преуспел, живет в квартире жены, которая и тащит всю семью. Единственное, что у него есть – это видеоблог, где они со своим сыном Степкой занимаются распаковками и обзорами игрушек. Во время очередной записи Михаил узнает, что у его жены есть другой. Михаил разводится, становится воскресным папой, но решает продолжать их с сыном блог. Только теперь он выходит в обучающе-воспитательном формате, Михаил передает Степе свой жизненный опыт и мудрость. А так как ни опыта, ни мудрости у него особо нет, все его попытки заканчиваются каким-нибудь происшествием.

Качество:WEB-DL 1080p
Формат: MKV
Видео: MPEG-4 AVC, ~ 4500 Кбит/с, 1920x1072
Аудио: AC3, 2 ch, 192 Кбит/с
Субтитры: Отсутствуют
Общее
Уникальный идентификатор : 239388676852131883947141938271475546187 (0xB418950523C53FA57107E224B721384B)
Полное имя : D:Yazhotec.2021.WEB-DL.1080pYazhotec.E01.2021.WEB-DL.1080p.mkv
Формат : Matroska
Версия формата : Version 4
Размер файла : 719 Мбайт
Продолжительность : 21 м. 29 с.
Режим общего битрейта : Переменный
Общий поток : 4 679 Кбит/сек
Название фильма : Yazhotec.E01.2021.WEB-DL.1080p
Дата кодирования : UTC 2021-09-20 17:31:25
Программа кодирования : mkvmerge v56.1.0 ('My Friend') 64-bit
Библиотека кодирования : libebml v1.4.2 + libmatroska v1.6.4
Attachments : poster.jpg
Видео
Идентификатор : 1
Формат : AVC
Формат/Информация : Advanced Video Codec
Профиль формата : High@L4.1
Настройки формата : CABAC / 2 Ref Frames
Параметр CABAC формата : Да
Параметр RefFrames формата : 2 кадра
Идентификатор кодека : V_MPEG4/ISO/AVC
Продолжительность : 21 м. 28 с.
Вид битрейта : Переменный
Битрейт : 4 500 Кбит/сек
Ширина : 1 920 пикселей
Высота : 1 072 пикселя
Соотношение сторон : 16:9
Режим частоты кадров : Постоянный
Частота кадров : 25,000 кадров/сек
Цветовое пространство : YUV
Субдискретизация насыщенности : 4:2:0
Битовая глубина : 8 бит
Тип развёртки : Прогрессивная
Бит/(Пиксели*Кадры) : 0.087
Размер потока : 689 Мбайт (96%)
Default : Да
Forced : Нет
Цветовой диапазон : Limited
Основные цвета : BT.709
Характеристики трансфера : BT.709
Аудио
Идентификатор : 2
Формат : AC-3
Формат/Информация : Audio Coding 3
Коммерческое название : Dolby Digital
Идентификатор кодека : A_AC3
Продолжительность : 21 м. 28 с.
Вид битрейта : Постоянный
Битрейт : 192 Кбит/сек
Каналы : 2 канала
Channel layout : L R
Частота : 48,0 КГц
Частота кадров : 31,250 кадров/сек (1536 SPF)
Метод сжатия : С потерями
Задержка видео : -120 мс.
Размер потока : 29,5 Мбайт (4%)
Service kind : Complete Main
Default : Да
Forced : Нет
Внимание! Раздача ведётся путём добавления новых серий; при каждом добавлении создаётся новый торрент. Чтобы начать докачку новой серии, пользователям необходимо сделать следующее: (1) остановить скачивание, (2) удалить старый торрент у себя из клиента (старые серии удалять не надо), (3) скачать новый торрент и запустить его у себя в клиенте вместо старого, при этом указать клиенту путь в старую папку куда и должно происходить скачивание новых серий.
Ваш клиент при этом должен произвести хеширование (проверку) старой папки (если не производит сам - помогите ему сделать это), и будет докачивать только те серии которых у вас ещё нет. Старые серии при этом не удаляются, а продолжают раздаваться!
Eсли вы уже удалили старые серии, то предотвратить повторную закачку старых серий можно, отжав галочку в соответствующих местах при запуске нового торрента.

Этот торрент недоступен для скачивания без регистрации, однако доступен по публичной magnet-ссылке (источники с публичных трекеров). Перед использованием ссылки прочтите, пожалуйста Пользовательское соглашение, а также как можно дольше оставайтесь на раздаче! Для того, чтобы скачать сам торрент-файл (который видит больше источников), а также для того, чтобы поблагодарить релизера, вам необходимо зарегистрироваться. Если регистрироваться лень - вы можете также попробовать скачать релиз по нашим партнерским ссылкам ниже. Кроме того, зарегистрированным пользователям не показывается всплывающая реклама при скачивании.

[underver.se].t221904.torrent
Трекер: Зарегистрирован   [ 07.10.2021 18:51 ]  

Статус: проверено (by Robbertta at 07.10.2021 19:45)
Поблагодарили: 1 человек
Тип торрента: публичный - доступные источники с открытых трекеров: 
Размер: 16,04 GB (занимает 3,66 DVDR, для записи нужно 4 болванки DVDR/RW)
 
 
Похожие темы
Форум Тема Автор Торрент Отв. Посл. сооб.
xUSSR сериалы #Яжотец / Сезон: 1 / Серии: 1-21 из 21 (Рустам Мосафир, Константин Смирнов (VI), Константин Колесов) [2021, Комедия, WEB-DLRip] Konin
118 | 25

0 | 151

11

20.09.2021 21:44

xUSSR сериалы #Яжотец / Сезон: 1 / Серии: 1-21 из 21 (Рустам Мосафир, Константин Смирнов (VI), Константин Колесов) [2021, Комедия, WEB-DLRip-AVC] Konin
9 | 2

0 | 137

1

20.09.2021 21:45

xUSSR сериалы [BD / Remux / BDRip / WEB-DL / HDTV 1080/720р] #Яжотец / Сезон: 1 / Серии: 1-21 из 21 (Рустам Мосафир, Константин Смирнов (VI), Константин Колесов) [2021, Комедия, WEB-DL 720p] Konin
2 | 1

0 | 283

1

20.09.2021 21:45


Яндекс.Метрика powered by Sphinx


В Н И М А Н И Е
Сайт не распространяет и не хранит электронные версии произведений, а лишь бесплатно и без коммерческой выгоды (не требуя взамен платы,
SMS и т.д.) предоставляет доступ к создаваемому пользователями каталогу ссылок на торрент-файлы, которые содержат только списки хеш-сумм.
Убедительная просьба с жалобами обращаться напрямую к пользователю, разместившему торрент файл.

Вверх