Loading...
Error

Готовы на всё / Сезон: 1 / Серии: 1-21 из 21 (Марк Горобец) [2021, Комедия, WEB-DL 1080p]

Статистика раздачи
Размер:  12,21 GB   |    Зарегистрирован:  17 дней   |    Скачан:  5 раз

Полного источника не было: 2 часа 16 минут

Сидов:  0  |  0 KB/s  ]   Личеров:  1  |  0 KB/s  ]

* - сиды/пиры с внешних источников

   
 
Автор Сообщение

Konin Пол:Муж

20-Сен-2021 21:58

Готовы на всё

Год выпуска: 2021
Страна: Россия
Студия: Производство ООО «Кейстоун Продакшн», АО «СТС»
Жанр: Комедия
Продолжительность: ~ 00:23:00 - Серия
Перевод: Не требуется
Режиссер:
Марк Горобец
В ролях:
Агния Кузнецова, Михаил Кремер, Валерия Астапова, Максим Лагашкин, Инга Оболдина, Роман Курцын, Константин Белошапка, Ренат Мухамбаев, Александр Панекин, Ирина Бякова, Екатерина Стулова, Сергей Бачурский, Роман Рипко, Татьяна Ястребова, Никита Абдулов, Александр Румянцев, Ксения Жданов...
О фильме:
До тридцати двух лет программист и стендап-комик Катя Скворцова жила своей жизнью: классная работа, любимое хобби, съёмная квартира в Москве, модная машина, взятая в кредит. Всё меняется, когда она неожиданно узнаёт, что вот-вот потеряет последнии? шанс стать матерью. У неё есть всего несколько месяцев, чтобы наи?ти отца для будущего ребёнка. Задача не из лёгких, особенно когда у тебя такой сильный характер и острый язык.

Качество: WEB-DL 1080p
Формат: MKV
Видео: MPEG-4 AVC, ~ 3500 Кбит/с, 1920x1080
Аудио: AC3, 2 ch, 192 Кбит/с
Субтитры: Отсутствуют
Общее
Уникальный идентификатор : 58780625327770573627363846803149889365 (0x2C38BC94E36B46B7BDEA882C7E751F55)
Полное имя : D:Gotovy.na.vsyo.2021.WEB-DL.1080pGotovy.na.vsyo.E01.2021.WEB-DL.1080p.mkv
Формат : Matroska
Версия формата : Version 4
Размер файла : 595 Мбайт
Продолжительность : 22 м. 39 с.
Общий поток : 3 672 Кбит/сек
Название фильма : Gotovy.na.vsyo.E01.2021.WEB-DL.1080p
Дата кодирования : UTC 2021-09-20 16:20:47
Программа кодирования : mkvmerge v56.1.0 ('My Friend') 64-bit
Библиотека кодирования : libebml v1.4.2 + libmatroska v1.6.4
Attachments : poster.jpg
Видео
Идентификатор : 1
Формат : AVC
Формат/Информация : Advanced Video Codec
Профиль формата : High@L5
Настройки формата : CABAC / 5 Ref Frames
Параметр CABAC формата : Да
Параметр RefFrames формата : 5 кадров
Параметр GOP формата : M=4, N=50
Идентификатор кодека : V_MPEG4/ISO/AVC
Продолжительность : 22 м. 39 с.
Битрейт : 3 478 Кбит/сек
Ширина : 1 920 пикселей
Высота : 1 080 пикселей
Соотношение сторон : 16:9
Режим частоты кадров : Постоянный
Частота кадров : 25,000 кадров/сек
Стандарт вещания : PAL
Цветовое пространство : YUV
Субдискретизация насыщенности : 4:2:0
Битовая глубина : 8 бит
Тип развёртки : Прогрессивная
Бит/(Пиксели*Кадры) : 0.067
Размер потока : 564 Мбайт (95%)
Default : Да
Forced : Нет
Цветовой диапазон : Limited
Основные цвета : BT.709
Характеристики трансфера : BT.709
Коэффициенты матрицы : BT.709
Аудио
Идентификатор : 2
Формат : AC-3
Формат/Информация : Audio Coding 3
Коммерческое название : Dolby Digital
Идентификатор кодека : A_AC3
Продолжительность : 22 м. 39 с.
Вид битрейта : Постоянный
Битрейт : 192 Кбит/сек
Каналы : 2 канала
Channel layout : L R
Частота : 48,0 КГц
Частота кадров : 31,250 кадров/сек (1536 SPF)
Метод сжатия : С потерями
Размер потока : 31,1 Мбайт (5%)
Service kind : Complete Main
Default : Да
Forced : Нет
Внимание! Раздача ведётся путём добавления новых серий; при каждом добавлении создаётся новый торрент. Чтобы начать докачку новой серии, пользователям необходимо сделать следующее: (1) остановить скачивание, (2) удалить старый торрент у себя из клиента (старые серии удалять не надо), (3) скачать новый торрент и запустить его у себя в клиенте вместо старого, при этом указать клиенту путь в старую папку куда и должно происходить скачивание новых серий.
Ваш клиент при этом должен произвести хеширование (проверку) старой папки (если не производит сам - помогите ему сделать это), и будет докачивать только те серии которых у вас ещё нет. Старые серии при этом не удаляются, а продолжают раздаваться!
Eсли вы уже удалили старые серии, то предотвратить повторную закачку старых серий можно, отжав галочку в соответствующих местах при запуске нового торрента.

Этот торрент недоступен для скачивания без регистрации, однако доступен по публичной magnet-ссылке (источники с публичных трекеров). Перед использованием ссылки прочтите, пожалуйста Пользовательское соглашение, а также как можно дольше оставайтесь на раздаче! Для того, чтобы скачать сам торрент-файл (который видит больше источников), а также для того, чтобы поблагодарить релизера, вам необходимо зарегистрироваться. Если регистрироваться лень - вы можете также попробовать скачать релиз по нашим партнерским ссылкам ниже. Кроме того, зарегистрированным пользователям не показывается всплывающая реклама при скачивании.

[underver.se].t221908.torrent
Трекер: Зарегистрирован   [ 07.10.2021 17:42 ]  

Статус: проверено (by Robbertta at 07.10.2021 19:47)
Поблагодарили: пока никто не поблагодарил...
Тип торрента: публичный - доступные источники с открытых трекеров: 
Размер: 12,21 GB (занимает 2,79 DVDR, для записи нужно 3 болванки DVDR/RW)
 
 
Похожие темы
Форум Тема Автор Торрент Отв. Посл. сооб.
xUSSR сериалы Готовы на всё / Сезон: 1 / Серии: 1-21 из 21 (Марк Горобец) [2021, Комедия, WEB-DLRip] Konin
27 | 8

0 | 116

12

20.09.2021 21:56

xUSSR сериалы Готовы на всё / Сезон: 1 / Серии: 1-21 из 21 (Марк Горобец) [2021, Комедия, WEB-DLRip-AVC] Konin
5 | 0

0 | 147

3

20.09.2021 21:56

xUSSR сериалы [BD / Remux / BDRip / WEB-DL / HDTV 1080/720р] Готовы на всё / Сезон: 1 / Серии: 1-21 из 21 (Марк Горобец) [2021, Комедия, WEB-DL 720p] Konin
5 | 2

0 | 97

1

20.09.2021 21:58


Яндекс.Метрика powered by Sphinx


В Н И М А Н И Е
Сайт не распространяет и не хранит электронные версии произведений, а лишь бесплатно и без коммерческой выгоды (не требуя взамен платы,
SMS и т.д.) предоставляет доступ к создаваемому пользователями каталогу ссылок на торрент-файлы, которые содержат только списки хеш-сумм.
Убедительная просьба с жалобами обращаться напрямую к пользователю, разместившему торрент файл.

Вверх