Loading...
Error

(Rock) Рондо - Добро пожаловать в «Рай» (1994) [FLAC (Image+.CUE), Lossless]

Статистика раздачи
Размер:  340 MB   |    Зарегистрирован:  11 месяцев   |    Скачан:  1 раз

Полного источника не было: 10 месяцев

Сидов:  0  |  0 KB/s  ]   Личеров:  0  |  0 KB/s  ]

* - сиды/пиры с внешних источников

   
 
Автор Сообщение

Бишеп Пол:Муж

24-Окт-2021 14:49

Рондо - Добро пожаловать в «Рай»

Жанр: Rock
Год выпуска: 1994
Носитель: CD
Производитель диска: Триарий - AM037
Аудиокодек: FLAC
Тип рипа: Image+.CUE
Битрейт аудио: lossless
Продолжительность: 00:42:08


Треклист:
01. Предок мне купил «Харлей-Дэвидсон»
02. Белый бультерьер
03. Ты сжигаешь мосты
04. Вверх по реке
05. Чёрная шуба, белый «Линкольн»
06. Леди-леденец
07. Глоток ночи
08. Добро пожаловать в «Рай»
09. Делай своё дело
10. Я возвращаюсь к тебе

Exact Audio Copy V1.5 from 20. February 2020 

Отчёт EAC об извлечении, выполненном 10. октября 2021, 17:51

Рондо / Добро пожаловать в «Рай»

Дисковод: ASUS DRW-24D5MT Adapter: 0 ID: 0

Режим чтения : Достоверность
Использование точного потока : Да
Отключение кэша аудио : Да
Использование указателей C2 : Нет

Коррекция смещения при чтении : 6
Способность читать области Lead-in и Lead-out : Нет
Заполнение пропущенных сэмплов тишиной : Да
Удаление блоков с тишиной в начале и конце : Нет
При вычислениях CRC использовались нулевые сэмплы : Да
Интерфейс : Установленный внешний ASPI-интерфейс

Выходной формат : Пользовательский кодировщик
Выбранный битрейт : 128 kBit/s
Качество : Высокий
Добавление ID3-тега : Нет
Утилита сжатия : C:\Program Files (x86)\Exact Audio Copy\Flac\flac.exe
Дополнительные параметры : -V -8 -T "Date=%year%" -T "Genre=%genre%" %source%

TOC извлечённого CD

Трек | Старт | Длительность | Начальный сектор | Конечный сектор
---------------------------------------------------------------------
1 | 0:00.32 | 6:17.00 | 32 | 28306
2 | 6:17.32 | 4:11.28 | 28307 | 47159
3 | 10:28.60 | 4:01.37 | 47160 | 65271
4 | 14:30.22 | 4:21.58 | 65272 | 84904
5 | 18:52.05 | 3:42.12 | 84905 | 101566
6 | 22:34.17 | 4:08.30 | 101567 | 120196
7 | 26:42.47 | 3:37.20 | 120197 | 136491
8 | 30:19.67 | 3:50.23 | 136492 | 153764
9 | 34:10.15 | 3:07.07 | 153765 | 167796
10 | 37:17.22 | 4:51.10 | 167797 | 189631

Характеристики диапазона извлечения и сообщения об ошибках

Выбранный диапазон

Имя файла C:\Users\OBERST\Desktop\Отправить\Рондо 1994 «Добро пожаловать в Рай!»\Рондо - Добро пожаловать в «Рай».wav

Пиковый уровень 95.5 %
Скорость извлечения 1.6 X
Качество диапазона 100.0 %
CRC теста E8C6317E
CRC копии E8C6317E
Копирование... OK

Ошибок не произошло

AccurateRip: сводка
Трек 1 отсутствует в базе данных
Трек 2 отсутствует в базе данных
Трек 3 отсутствует в базе данных
Трек 4 отсутствует в базе данных
Трек 5 отсутствует в базе данных
Трек 6 отсутствует в базе данных
Трек 7 отсутствует в базе данных
Трек 8 отсутствует в базе данных
Трек 9 отсутствует в базе данных
Трек 10 отсутствует в базе данных
Ни одного трека нет в базе AccurateRip

Конец отчёта

---- CUETools DB Plugin V2.1.6

[CTDB TOCID: S.5cMnuNx.CCUO4Xz2SEDSOCE_E-] found
Submit result: S.5cMnuNx.CCUO4Xz2SEDSOCE_E- has been confirmed
Track | CTDB Status
1 | (1/1) Accurately ripped
2 | (1/1) Accurately ripped
3 | (1/1) Accurately ripped
4 | (1/1) Accurately ripped
5 | (1/1) Accurately ripped
6 | (1/1) Accurately ripped
7 | (1/1) Accurately ripped
8 | (1/1) Accurately ripped
9 | (1/1) Accurately ripped
10 | (1/1) Accurately ripped

==== Контрольная сумма отчёта 13843F7727CBCFE59D596185A3557C3C30896AAADA99BB7B84219A3063AD3F0E ====
REM GENRE "Hard Rock" 
REM DATE 1994
REM DISCID 7709E00A
REM COMMENT "ExactAudioCopy v1.5"
PERFORMER "Рондо"
TITLE "Добро пожаловать в «Рай»"
REM COMPOSER ""
FILE "Рондо - Добро пожаловать в «Рай».flac" WAVE
TRACK 01 AUDIO
TITLE "Предок мне купил «Харлей-Дэвидсон»"
PERFORMER "Рондо"
REM COMPOSER ""
INDEX 00 00:00:00
INDEX 01 00:00:32
TRACK 02 AUDIO
TITLE "Белый бультерьер"
PERFORMER "Рондо"
REM COMPOSER ""
INDEX 00 06:12:37
INDEX 01 06:17:32
TRACK 03 AUDIO
TITLE "Ты сжигаешь мосты"
PERFORMER "Рондо"
REM COMPOSER ""
INDEX 00 10:24:70
INDEX 01 10:28:60
TRACK 04 AUDIO
TITLE "Вверх по реке"
PERFORMER "Рондо"
REM COMPOSER ""
INDEX 00 14:24:45
INDEX 01 14:30:22
TRACK 05 AUDIO
TITLE "Чёрная шуба, белый «Линкольн»"
PERFORMER "Рондо"
REM COMPOSER ""
INDEX 00 18:47:32
INDEX 01 18:52:05
TRACK 06 AUDIO
TITLE "Леди-леденец"
PERFORMER "Рондо"
REM COMPOSER ""
INDEX 00 22:29:25
INDEX 01 22:34:17
TRACK 07 AUDIO
TITLE "Глоток ночи"
PERFORMER "Рондо"
REM COMPOSER ""
INDEX 00 26:38:42
INDEX 01 26:42:47
TRACK 08 AUDIO
TITLE "Добро пожаловать в «Рай»"
PERFORMER "Рондо"
REM COMPOSER ""
INDEX 00 30:15:35
INDEX 01 30:19:67
TRACK 09 AUDIO
TITLE "Делай своё дело"
PERFORMER "Рондо"
REM COMPOSER ""
INDEX 00 34:06:65
INDEX 01 34:10:15
TRACK 10 AUDIO
TITLE "Я возвращаюсь к тебе"
PERFORMER "Рондо"
REM COMPOSER ""
INDEX 00 37:12:42
INDEX 01 37:17:22

Этот торрент недоступен для скачивания без регистрации, однако доступен по публичной magnet-ссылке (источники с публичных трекеров). Перед использованием ссылки прочтите, пожалуйста Пользовательское соглашение, а также как можно дольше оставайтесь на раздаче! Для того, чтобы скачать сам торрент-файл (который видит больше источников), а также для того, чтобы поблагодарить релизера, вам необходимо зарегистрироваться. Если регистрироваться лень - вы можете также попробовать скачать релиз по нашим партнерским ссылкам ниже. Кроме того, зарегистрированным пользователям не показывается всплывающая реклама при скачивании.

[underver.se].t225558.torrent
Трекер: Зарегистрирован   [ 24.10.2021 14:49 ]  
Статус: проверено (by Бишеп at 24.10.2021 14:49)
Поблагодарили: пока никто не поблагодарил...
Тип торрента: публичный - доступные источники с открытых трекеров: 
Размер: 340 MB (занимает 0.08 DVDR, для записи нужно 1 болванка DVDR/RW)
 
 

Яндекс.Метрика powered by Sphinx


В Н И М А Н И Е
Сайт не распространяет и не хранит электронные версии произведений, а лишь бесплатно и без коммерческой выгоды (не требуя взамен платы,
SMS и т.д.) предоставляет доступ к создаваемому пользователями каталогу ссылок на торрент-файлы, которые содержат только списки хеш-сумм.
Убедительная просьба с жалобами обращаться напрямую к пользователю, разместившему торрент файл.

Вверх