Loading...
Error

(Rock) Nautilus Pompilius - Разлука (2004) [FLAC (Image+.CUE), Lossless]

Статистика раздачи
Размер:  358 MB   |    Зарегистрирован:  9 месяцев   |    Скачан:  4 раза

Полного источника не было: 3 месяца 14 дней

Сидов:  0  |  0 KB/s  ]   Личеров:  0  |  0 KB/s  ]

* - сиды/пиры с внешних источников

   
 
Автор Сообщение

Бишеп Пол:Муж

21-Дек-2021 06:35

Nautilus Pompilius - Разлука

Жанр: Rock
Год выпуска: 2004
Носитель: CD
Производитель диска: Dana Music - AXCD5-0024
Аудиокодек: FLAC
Тип рипа: Image+.CUE
Битрейт аудио: lossless
Продолжительность: 00:40:53


Треклист:
01. Эпиграф
02. Эта музыка будет вечной
03. Казанова
04. Праздник общей беды
05. Взгляд с экрана
06. Хлоп-хлоп
07. Шар цвета хаки
08. Наша семья
09. Рвать ткань
10. Всего лишь быть
11. Скованные одной цепью

Exact Audio Copy V1.3 from 2. September 2016 

EAC extraction logfile from 18. November 2016, 21:24

Nautilus Pompilius / Разлука

Used drive : HL-DT-STDVDRAM GH24NSD1 Adapter: 1 ID: 0

Read mode : Secure
Utilize accurate stream : Yes
Defeat audio cache : Yes
Make use of C2 pointers : No

Read offset correction : 6
Overread into Lead-In and Lead-Out : No
Fill up missing offset samples with silence : Yes
Delete leading and trailing silent blocks : No
Null samples used in CRC calculations : Yes
Used interface : Installed external ASPI interface

Used output format : User Defined Encoder
Selected bitrate : 1024 kBit/s
Quality : High
Add ID3 tag : No
Command line compressor : D:\Program Files\Exact Audio Copy\Flac\flac.exe
Additional command line options : -V -8 -T "Genre=%genre%" -T "Artist=%artist%" -T "Title=%title%" -T "Album=%albumtitle%" -T "Date=%year%" -T "Tracknumber=%tracknr%" -T "Comment=%comment%" %source%

TOC of the extracted CD

Track | Start | Length | Start sector | End sector
---------------------------------------------------------
1 | 0:00.00 | 2:17.39 | 0 | 10313
2 | 2:17.39 | 4:38.41 | 10314 | 31204
3 | 6:56.05 | 4:20.65 | 31205 | 50769
4 | 11:16.70 | 2:46.48 | 50770 | 63267
5 | 14:03.43 | 4:31.18 | 63268 | 83610
6 | 18:34.61 | 4:04.35 | 83611 | 101945
7 | 22:39.21 | 2:57.52 | 101946 | 115272
8 | 25:36.73 | 3:18.13 | 115273 | 130135
9 | 28:55.11 | 3:25.00 | 130136 | 145510
10 | 32:20.11 | 4:41.23 | 145511 | 166608
11 | 37:01.34 | 3:51.60 | 166609 | 183993

Range status and errors

Selected range

Filename D:\Desktop\Nautilus Pompilius - Разлука (2004)\Nautilus Pompilius - Разлука.wav

Peak level 98.8 %
Extraction speed 1.8 X
Range quality 100.0 %
Test CRC 98916835
Copy CRC 98916835
Copy OK

No errors occurred

AccurateRip summary
Track 1 accurately ripped (confidence 2) [D11D90E2] (AR v2)
Track 2 accurately ripped (confidence 2) [203DEFAA] (AR v2)
Track 3 accurately ripped (confidence 2) [559A0F93] (AR v2)
Track 4 accurately ripped (confidence 2) [CAE62BC9] (AR v2)
Track 5 accurately ripped (confidence 2) [AC959D6B] (AR v2)
Track 6 accurately ripped (confidence 2) [81E039D2] (AR v2)
Track 7 accurately ripped (confidence 2) [6EB108DF] (AR v2)
Track 8 accurately ripped (confidence 2) [1E8429D2] (AR v2)
Track 9 accurately ripped (confidence 2) [BF33F395] (AR v2)
Track 10 accurately ripped (confidence 2) [7680A427] (AR v2)
Track 11 accurately ripped (confidence 2) [FF54A544] (AR v2)
All tracks accurately ripped

End of status report

==== Log checksum 997A10BC0020A6C30B0D80BB5C81625F0830E99BD25698688C687A5BC7BAF12D ====
REM GENRE "Rock, New Wave" 
REM DATE 2004
REM DISCID 9209950B
REM COMMENT "ExactAudioCopy v1.3"
PERFORMER "Nautilus Pompilius"
TITLE "Разлука"
REM COMPOSER ""
FILE "Nautilus Pompilius - Разлука.flac" WAVE
TRACK 01 AUDIO
TITLE "Эпиграф"
PERFORMER "Nautilus Pompilius"
REM COMPOSER ""
INDEX 01 00:00:00
TRACK 02 AUDIO
TITLE "Эта музыка будет вечной"
PERFORMER "Nautilus Pompilius"
REM COMPOSER ""
INDEX 01 02:17:39
TRACK 03 AUDIO
TITLE "Казанова"
PERFORMER "Nautilus Pompilius"
REM COMPOSER ""
INDEX 01 06:56:05
TRACK 04 AUDIO
TITLE "Праздник общей беды"
PERFORMER "Nautilus Pompilius"
REM COMPOSER ""
INDEX 01 11:16:70
TRACK 05 AUDIO
TITLE "Взгляд с экрана"
PERFORMER "Nautilus Pompilius"
REM COMPOSER ""
INDEX 01 14:03:43
TRACK 06 AUDIO
TITLE "Хлоп-хлоп"
PERFORMER "Nautilus Pompilius"
REM COMPOSER ""
INDEX 01 18:34:61
TRACK 07 AUDIO
TITLE "Шар цвета хаки"
PERFORMER "Nautilus Pompilius"
REM COMPOSER ""
INDEX 01 22:39:21
TRACK 08 AUDIO
TITLE "Наша семья"
PERFORMER "Nautilus Pompilius"
REM COMPOSER ""
INDEX 01 25:36:73
TRACK 09 AUDIO
TITLE "Рвать ткань"
PERFORMER "Nautilus Pompilius"
REM COMPOSER ""
INDEX 01 28:55:11
TRACK 10 AUDIO
TITLE "Всего лишь быть"
PERFORMER "Nautilus Pompilius"
REM COMPOSER ""
INDEX 01 32:20:11
TRACK 11 AUDIO
TITLE "Скованные одной цепью"
PERFORMER "Nautilus Pompilius"
REM COMPOSER ""
INDEX 01 37:01:34

Этот торрент недоступен для скачивания без регистрации, однако доступен по публичной magnet-ссылке (источники с публичных трекеров). Перед использованием ссылки прочтите, пожалуйста Пользовательское соглашение, а также как можно дольше оставайтесь на раздаче! Для того, чтобы скачать сам торрент-файл (который видит больше источников), а также для того, чтобы поблагодарить релизера, вам необходимо зарегистрироваться. Если регистрироваться лень - вы можете также попробовать скачать релиз по нашим партнерским ссылкам ниже. Кроме того, зарегистрированным пользователям не показывается всплывающая реклама при скачивании.

[underver.se].t230751.torrent
Трекер: Зарегистрирован   [ 21.12.2021 06:35 ]  
Статус: проверено (by Бишеп at 21.12.2021 06:37)
Поблагодарили: пока никто не поблагодарил...
Тип торрента: публичный - доступные источники с открытых трекеров: 
Размер: 358 MB (занимает 0.08 DVDR, для записи нужно 1 болванка DVDR/RW)
 
 

Яндекс.Метрика powered by Sphinx


В Н И М А Н И Е
Сайт не распространяет и не хранит электронные версии произведений, а лишь бесплатно и без коммерческой выгоды (не требуя взамен платы,
SMS и т.д.) предоставляет доступ к создаваемому пользователями каталогу ссылок на торрент-файлы, которые содержат только списки хеш-сумм.
Убедительная просьба с жалобами обращаться напрямую к пользователю, разместившему торрент файл.

Вверх