Loading...
Error

(Power-Metal) TNT - Welcome to Another World (2021) [FLAC (tracks), Lossless]

Статистика раздачи
Размер:  340 MB   |    Зарегистрирован:  9 месяцев   |    Скачан:  2 раза

Полного источника не было: 8 месяцев

Сидов:  0  |  0 KB/s  ]   Личеров:  0  |  0 KB/s  ]

* - сиды/пиры с внешних источников

   
 
Автор Сообщение

Renesans Пол:Муж

22-Дек-2021 05:34

TNT - Welcome to Another World


Год: 2021
Жанр: Power-Metal

Битрейт аудио: Lossless
Формат/Кодек: FLAC
Продолжительность: 00:53:01
Тип рипа: Tracks
01 - Turn Around (00:03:13)
02 - Lost Emotions (00:05:28)
03 - Age of Destruction (00:02:44)
04 - Fat but Starving (00:05:05)
05 - Garmr (00:03:36)
06 - Death Waits for Us (00:04:53)
07 - Here in the Darkness (00:02:58)
08 - Dont Try to Stop Me (00:06:10)
09 - Laki Lid (00:02:31)
10 - The Fight (00:11:33)
11 - S.O.S III (00:04:44)
foobar2000 1.5.2 / Замер динамического диапазона (DR) 1.1.1
Дата отчёта: 2021-12-20 08:56:15
--------------------------------------------------------------------------------
Анализ: Tnt Die Band / Welcome to Another World
--------------------------------------------------------------------------------
DR Пики RMS Продолжительность трека
--------------------------------------------------------------------------------
DR9 0.00 дБ -10.44 дБ 3:14 01-Turn Around
DR9 0.00 дБ -10.27 дБ 5:28 02-Lost Emotions
DR10 0.00 дБ -11.60 дБ 2:45 03-Age of Destruction
DR9 0.00 дБ -10.71 дБ 5:06 04-Fat but Starving
DR10 0.00 дБ -11.48 дБ 3:36 05-Garmr
DR8 0.00 дБ -9.33 дБ 4:54 06-Death Waits for Us
DR9 0.00 дБ -9.52 дБ 2:58 07-Here in the Darkness
DR9 0.00 дБ -10.11 дБ 6:11 08-Dont Try to Stop Me
DR9 0.00 дБ -9.64 дБ 2:31 09-Laki Lid
DR10 0.00 дБ -11.91 дБ 11:34 10-The Fight
DR12 0.00 дБ -17.52 дБ 4:45 11-S.O.S III
--------------------------------------------------------------------------------
Количество треков: 11
Реальные значения DR: DR10
Частота: 44100 Гц
Каналов: 2
Разрядность: 16
Битрейт: 723 кбит/с
Кодек: FLAC
================================================================================

Этот торрент недоступен для скачивания без регистрации, однако доступен по публичной magnet-ссылке (источники с публичных трекеров). Перед использованием ссылки прочтите, пожалуйста Пользовательское соглашение, а также как можно дольше оставайтесь на раздаче! Для того, чтобы скачать сам торрент-файл (который видит больше источников), а также для того, чтобы поблагодарить релизера, вам необходимо зарегистрироваться. Если регистрироваться лень - вы можете также попробовать скачать релиз по нашим партнерским ссылкам ниже. Кроме того, зарегистрированным пользователям не показывается всплывающая реклама при скачивании.

[underver.se].t230930.torrent
Трекер: Зарегистрирован   [ 22.12.2021 05:34 ]  
Статус: проверено (by Renesans at 22.12.2021 05:36)
Поблагодарили: пока никто не поблагодарил...
Тип торрента: публичный - доступные источники с открытых трекеров: 
Размер: 340 MB (занимает 0.08 DVDR, для записи нужно 1 болванка DVDR/RW)
 
 

Яндекс.Метрика powered by Sphinx


В Н И М А Н И Е
Сайт не распространяет и не хранит электронные версии произведений, а лишь бесплатно и без коммерческой выгоды (не требуя взамен платы,
SMS и т.д.) предоставляет доступ к создаваемому пользователями каталогу ссылок на торрент-файлы, которые содержат только списки хеш-сумм.
Убедительная просьба с жалобами обращаться напрямую к пользователю, разместившему торрент файл.

Вверх