Loading...
Error

(Heavy Metal) U.D.O. - Game Over (2021) [FLAC (Image+.CUE), Lossless]

Статистика раздачи
Размер:  576 MB   |    Зарегистрирован:  9 месяцев   |    Скачан:  3 раза

Полного источника не было: 4 месяца 22 дня

Сидов:  0  |  0 KB/s  ]   Личеров:  0  |  0 KB/s  ]

* - сиды/пиры с внешних источников

   
 
Автор Сообщение

Бишеп Пол:Муж

27-Дек-2021 15:32

U.D.O. - Game Over

Жанр: Heavy Metal
Год выпуска: 2021
Носитель: CD
Производитель диска: AFM Records - AFM 753-9
Аудиокодек: FLAC
Тип рипа: Image+.CUE
Битрейт аудио: lossless
Продолжительность: 01:08:55


Треклист:
01. Fear Detector (04:21)
02. Holy Invadors (03:27)
03. Prophecy (04:42)
04. Empty Eyes (03:52)
05. I See Red (03:17)
06. Metal Never Dies (05:06)
07. Kids And Guns (04:08)
08. Like A Beast (05:03)
09. Don't Wanna Say Goodbye (04:13)
10. Unbroken (03:14)
11. Marching Tank (05:07)
12. Thunder Road (04:05)
13. Midnight Stranger (05:30)
14. Speed Seeker (04:34)
15. Time Control (04:16)
16. Metal Damnation (04:02)

Exact Audio Copy V1.5 from 20. February 2020 

EAC extraction logfile from 21. October 2021, 17:49

U.D.O. / Game Over [AFM 753-9]

Used drive : HL-DT-STBD-RE BH10LS38 Adapter: 1 ID: 0

Read mode : Secure
Utilize accurate stream : Yes
Defeat audio cache : Yes
Make use of C2 pointers : No

Read offset correction : 667
Overread into Lead-In and Lead-Out : No
Fill up missing offset samples with silence : Yes
Delete leading and trailing silent blocks : No
Null samples used in CRC calculations : Yes
Used interface : Native Win32 interface for Win NT & 2000

Used output format : User Defined Encoder
Selected bitrate : 128 kBit/s
Quality : High
Add ID3 tag : No
Command line compressor : C:\Program Files (x86)\Exact Audio Copy\Flac\flac.exe
Additional command line options : -V -8 -T "Date=%year%" -T "Genre=%genre%" %source%

TOC of the extracted CD

Track | Start | Length | Start sector | End sector
---------------------------------------------------------
1 | 0:00.22 | 4:20.58 | 22 | 19579
2 | 4:21.05 | 3:26.63 | 19580 | 35092
3 | 7:47.68 | 4:41.48 | 35093 | 56215
4 | 12:29.41 | 3:52.07 | 56216 | 73622
5 | 16:21.48 | 3:16.45 | 73623 | 88367
6 | 19:38.18 | 5:06.20 | 88368 | 111337
7 | 24:44.38 | 4:07.65 | 111338 | 129927
8 | 28:52.28 | 5:02.72 | 129928 | 152649
9 | 33:55.25 | 4:12.68 | 152650 | 171617
10 | 38:08.18 | 3:13.40 | 171618 | 186132
11 | 41:21.58 | 5:06.59 | 186133 | 209141
12 | 46:28.42 | 4:04.40 | 209142 | 227481
13 | 50:33.07 | 5:29.56 | 227482 | 252212
14 | 56:02.63 | 4:34.29 | 252213 | 272791
15 | 60:37.17 | 4:16.05 | 272792 | 291996
16 | 64:53.22 | 4:01.45 | 291997 | 310116

Range status and errors

Selected range

Filename D:\Rips by Alder\U.D.O. - Game Over [AFM 753-9].wav

Peak level 100.0 %
Extraction speed 8.0 X
Range quality 100.0 %
Test CRC D7454174
Copy CRC D7454174
Copy OK

No errors occurred

AccurateRip summary
Track 1 not present in database
Track 2 not present in database
Track 3 not present in database
Track 4 not present in database
Track 5 not present in database
Track 6 not present in database
Track 7 not present in database
Track 8 not present in database
Track 9 not present in database
Track 10 not present in database
Track 11 not present in database
Track 12 not present in database
Track 13 not present in database
Track 14 not present in database
Track 15 not present in database
Track 16 not present in database
None of the tracks are present in the AccurateRip database

End of status report

---- CUETools DB Plugin V2.1.6

[CTDB TOCID: Yy1If30vGPR14I4vHoRJiq6Nk2A-] found
Submit result: Yy1If30vGPR14I4vHoRJiq6Nk2A- has been confirmed
Track | CTDB Status
1 | (1/1) Accurately ripped
2 | (1/1) Accurately ripped
3 | (1/1) Accurately ripped
4 | (1/1) Accurately ripped
5 | (1/1) Accurately ripped
6 | (1/1) Accurately ripped
7 | (1/1) Accurately ripped
8 | (1/1) Accurately ripped
9 | (1/1) Accurately ripped
10 | (1/1) Accurately ripped
11 | (1/1) Accurately ripped
12 | (1/1) Accurately ripped
13 | (1/1) Accurately ripped
14 | (1/1) Accurately ripped
15 | (1/1) Accurately ripped
16 | (1/1) Accurately ripped

==== Log checksum DF35643641BC923EEBF93237DA6155393F64F3F1F8342026C5C34E1A063694B5 ====
REM GENRE "Heavy Metal" 
REM DATE 2021
REM DISCID F2102610
REM COMMENT "ExactAudioCopy v1.5"
PERFORMER "U.D.O."
TITLE "Game Over [AFM 753-9]"
REM COMPOSER ""
FILE "U.D.O. - Game Over [AFM 753-9].flac" WAVE
TRACK 01 AUDIO
TITLE "Fear Detector"
PERFORMER "U.D.O."
REM COMPOSER ""
INDEX 00 00:00:00
INDEX 01 00:00:22
TRACK 02 AUDIO
TITLE "Holy Invadors"
PERFORMER "U.D.O."
REM COMPOSER ""
INDEX 00 04:20:59
INDEX 01 04:21:05
TRACK 03 AUDIO
TITLE "Prophecy"
PERFORMER "U.D.O."
REM COMPOSER ""
INDEX 00 07:47:47
INDEX 01 07:47:68
TRACK 04 AUDIO
TITLE "Empty Eyes"
PERFORMER "U.D.O."
REM COMPOSER ""
INDEX 00 12:29:19
INDEX 01 12:29:41
TRACK 05 AUDIO
TITLE "I See Red"
PERFORMER "U.D.O."
REM COMPOSER ""
INDEX 00 16:21:26
INDEX 01 16:21:48
TRACK 06 AUDIO
TITLE "Metal Never Dies"
PERFORMER "U.D.O."
REM COMPOSER ""
INDEX 00 19:37:71
INDEX 01 19:38:18
TRACK 07 AUDIO
TITLE "Kids And Guns"
PERFORMER "U.D.O."
REM COMPOSER ""
INDEX 00 24:44:16
INDEX 01 24:44:38
TRACK 08 AUDIO
TITLE "Like A Beast"
PERFORMER "U.D.O."
REM COMPOSER ""
INDEX 00 28:52:07
INDEX 01 28:52:28
TRACK 09 AUDIO
TITLE "Don't Wanna Say Goodbye"
PERFORMER "U.D.O."
REM COMPOSER ""
INDEX 00 33:55:04
INDEX 01 33:55:25
TRACK 10 AUDIO
TITLE "Unbroken"
PERFORMER "U.D.O."
REM COMPOSER ""
INDEX 00 38:07:71
INDEX 01 38:08:18
TRACK 11 AUDIO
TITLE "Marching Tank"
PERFORMER "U.D.O."
REM COMPOSER ""
INDEX 00 41:21:37
INDEX 01 41:21:58
TRACK 12 AUDIO
TITLE "Thunder Road"
PERFORMER "U.D.O."
REM COMPOSER ""
INDEX 00 46:28:20
INDEX 01 46:28:42
TRACK 13 AUDIO
TITLE "Midnight Stranger"
PERFORMER "U.D.O."
REM COMPOSER ""
INDEX 00 50:32:61
INDEX 01 50:33:07
TRACK 14 AUDIO
TITLE "Speed Seeker"
PERFORMER "U.D.O."
REM COMPOSER ""
INDEX 00 56:02:41
INDEX 01 56:02:63
TRACK 15 AUDIO
TITLE "Time Control"
PERFORMER "U.D.O."
REM COMPOSER ""
INDEX 00 60:36:70
INDEX 01 60:37:17
TRACK 16 AUDIO
TITLE "Metal Damnation"
PERFORMER "U.D.O."
REM COMPOSER ""
INDEX 00 64:53:00
INDEX 01 64:53:22

Этот торрент недоступен для скачивания без регистрации, однако доступен по публичной magnet-ссылке (источники с публичных трекеров). Перед использованием ссылки прочтите, пожалуйста Пользовательское соглашение, а также как можно дольше оставайтесь на раздаче! Для того, чтобы скачать сам торрент-файл (который видит больше источников), а также для того, чтобы поблагодарить релизера, вам необходимо зарегистрироваться. Если регистрироваться лень - вы можете также попробовать скачать релиз по нашим партнерским ссылкам ниже. Кроме того, зарегистрированным пользователям не показывается всплывающая реклама при скачивании.

[underver.se].t231454.torrent
Трекер: Зарегистрирован   [ 27.12.2021 15:32 ]  
Статус: проверено (by Бишеп at 27.12.2021 15:32)
Поблагодарили: пока никто не поблагодарил...
Тип торрента: публичный - доступные источники с открытых трекеров: 
Размер: 576 MB (занимает 0.13 DVDR, для записи нужно 1 болванка DVDR/RW)
 
 

Яндекс.Метрика powered by Sphinx


В Н И М А Н И Е
Сайт не распространяет и не хранит электронные версии произведений, а лишь бесплатно и без коммерческой выгоды (не требуя взамен платы,
SMS и т.д.) предоставляет доступ к создаваемому пользователями каталогу ссылок на торрент-файлы, которые содержат только списки хеш-сумм.
Убедительная просьба с жалобами обращаться напрямую к пользователю, разместившему торрент файл.

Вверх