Loading...
Error

(Heavy Metal, Hard Rock) Victory - Gods Of Tomorrow (2021) [FLAC (Tracks+.Cue), Lossless]

Статистика раздачи
Размер:  501 MB   |    Зарегистрирован:  9 месяцев   |    Скачан:  3 раза

Полного источника не было: 8 месяцев

Сидов:  0  |  0 KB/s  ]   Личеров:  0  |  0 KB/s  ]

* - сиды/пиры с внешних источников

   
 
Автор Сообщение

Бишеп Пол:Муж

30-Дек-2021 16:00

Victory - Gods Of Tomorrow

Жанр: Heavy Metal, Hard Rock
Год выпуска: 2021
Носитель: CD
Производитель диска: Фоно, AFM Records - FO1689CD
Аудиокодек: FLAC
Тип рипа: Tracks+.CUE
Битрейт аудио: lossless
Продолжительность: 00:53:02


Треклист:
01. Intro
02. Love & Hate
03. Gods Of Tomorrow
04. Cut To The Bone
05. Dying In Your Arms
06. Hold On Me
07. Into The Light
08. Mad
09. Unconditional Love
10. My Own Desire
11. On Fire
12. Rising Force
13. In Rock We Trust
14. Leave You Alone

Exact Audio Copy V1.6 from 23. October 2020 

Отчёт EAC об извлечении, выполненном 25. ноября 2021, 16:43

Victory / Gods Of Tomorrow

Дисковод: ASUS DRW-24D5MT Adapter: 1 ID: 0

Режим чтения : Достоверность
Использование точного потока : Да
Отключение кэша аудио : Да
Использование указателей C2 : Нет

Коррекция смещения при чтении : 6
Способность читать области Lead-in и Lead-out : Нет
Заполнение пропущенных сэмплов тишиной : Да
Удаление блоков с тишиной в начале и конце : Нет
При вычислениях CRC использовались нулевые сэмплы : Да
Интерфейс : Встроенный Win32-интерфейс для Win NT/2000
Обработка зазоров : Добавлено к предыдущему треку

Выходной формат : Пользовательский кодировщик
Выбранный битрейт : 128 kBit/s
Качество : Высокий
Добавление ID3-тега : Нет
Утилита сжатия : C:\Program Files (x86)\Exact Audio Copy\Flac\flac.exe
Дополнительные параметры : -V -8 -T "Genre=%genre%" -T "Artist=%artist%" -T "Title=%title%" -T "Album=%albumtitle%" -T "Date=%year%" -T "Tracknumber=%tracknr%" -T "Comment=%comment%" %source%

TOC извлечённого CD

Трек | Старт | Длительность | Начальный сектор | Конечный сектор
---------------------------------------------------------------------
1 | 0:00.00 | 0:43.26 | 0 | 3250
2 | 0:43.26 | 4:29.19 | 3251 | 23444
3 | 5:12.45 | 3:32.16 | 23445 | 39360
4 | 8:44.61 | 4:40.22 | 39361 | 60382
5 | 13:25.08 | 4:28.61 | 60383 | 80543
6 | 17:53.69 | 3:41.00 | 80544 | 97118
7 | 21:34.69 | 2:59.05 | 97119 | 110548
8 | 24:33.74 | 4:52.55 | 110549 | 132503
9 | 29:26.54 | 5:35.33 | 132504 | 157661
10 | 35:02.12 | 4:31.50 | 157662 | 178036
11 | 39:33.62 | 3:45.15 | 178037 | 194926
12 | 43:19.02 | 3:22.55 | 194927 | 210131
13 | 46:41.57 | 2:42.74 | 210132 | 222355
14 | 49:24.56 | 3:37.39 | 222356 | 238669

Трек 1

Имя файла M:\Рипы\Новая папка (2)\01. Intro Love & Hate.wav

Длина предзазора 0:00:02.00

Пиковый уровень 64.9 %
Скорость извлечения 2.7 X
Качество трека 100.0 %
CRC теста 1B637DDA
CRC копии 1B637DDA
Трек не обнаружен в базе AccurateRip
Копирование... OK

Трек 2

Имя файла M:\Рипы\Новая папка (2)\02. Love & Hate.wav

Пиковый уровень 99.9 %
Скорость извлечения 4.2 X
Качество трека 99.9 %
CRC теста E68218CB
CRC копии E68218CB
Трек не обнаружен в базе AccurateRip
Копирование... OK

Трек 3

Имя файла M:\Рипы\Новая папка (2)\03. Gods Of Tomorrow.wav

Пиковый уровень 99.9 %
Скорость извлечения 5.0 X
Качество трека 100.0 %
CRC теста 44B89D53
CRC копии 44B89D53
Трек не обнаружен в базе AccurateRip
Копирование... OK

Трек 4

Имя файла M:\Рипы\Новая папка (2)\04. Cut To The Bone.wav

Пиковый уровень 99.9 %
Скорость извлечения 5.6 X
Качество трека 100.0 %
CRC теста B2F6B2B7
CRC копии B2F6B2B7
Трек не обнаружен в базе AccurateRip
Копирование... OK

Трек 5

Имя файла M:\Рипы\Новая папка (2)\05. Dying In Your Arms.wav

Пиковый уровень 99.9 %
Скорость извлечения 6.0 X
Качество трека 100.0 %
CRC теста C448BFB0
CRC копии C448BFB0
Трек не обнаружен в базе AccurateRip
Копирование... OK

Трек 6

Имя файла M:\Рипы\Новая папка (2)\06. Hold On Me.wav

Пиковый уровень 99.9 %
Скорость извлечения 6.2 X
Качество трека 100.0 %
CRC теста DB17BA72
CRC копии DB17BA72
Трек не обнаружен в базе AccurateRip
Копирование... OK

Трек 7

Имя файла M:\Рипы\Новая папка (2)\07. Into The Light.wav

Пиковый уровень 99.8 %
Скорость извлечения 6.3 X
Качество трека 100.0 %
CRC теста BFB33285
CRC копии BFB33285
Трек не обнаружен в базе AccurateRip
Копирование... OK

Трек 8

Имя файла M:\Рипы\Новая папка (2)\08. Mad.wav

Пиковый уровень 99.8 %
Скорость извлечения 7.0 X
Качество трека 100.0 %
CRC теста BD66E965
CRC копии BD66E965
Трек не обнаружен в базе AccurateRip
Копирование... OK

Трек 9

Имя файла M:\Рипы\Новая папка (2)\09. Unconditional Love.wav

Пиковый уровень 99.9 %
Скорость извлечения 7.5 X
Качество трека 100.0 %
CRC теста 1E2FBACD
CRC копии 1E2FBACD
Трек не обнаружен в базе AccurateRip
Копирование... OK

Трек 10

Имя файла M:\Рипы\Новая папка (2)\10. My Own Desire.wav

Пиковый уровень 99.9 %
Скорость извлечения 7.7 X
Качество трека 100.0 %
CRC теста A2B74095
CRC копии A2B74095
Трек не обнаружен в базе AccurateRip
Копирование... OK

Трек 11

Имя файла M:\Рипы\Новая папка (2)\11. On Fire.wav

Пиковый уровень 99.9 %
Скорость извлечения 7.8 X
Качество трека 100.0 %
CRC теста 37D3C989
CRC копии 37D3C989
Трек не обнаружен в базе AccurateRip
Копирование... OK

Трек 12

Имя файла M:\Рипы\Новая папка (2)\12. Rising Force.wav

Пиковый уровень 99.8 %
Скорость извлечения 7.9 X
Качество трека 100.0 %
CRC теста 6CC9073B
CRC копии 6CC9073B
Трек не обнаружен в базе AccurateRip
Копирование... OK

Трек 13

Имя файла M:\Рипы\Новая папка (2)\13. In Rock We Trust.wav

Пиковый уровень 99.8 %
Скорость извлечения 6.6 X
Качество трека 99.9 %
CRC теста 17FF3417
CRC копии 17FF3417
Трек не обнаружен в базе AccurateRip
Копирование... OK

Трек 14

Имя файла M:\Рипы\Новая папка (2)\14. Leave You Alone.wav

Пиковый уровень 99.8 %
Скорость извлечения 8.3 X
Качество трека 100.0 %
CRC теста 7EBDCCF4
CRC копии 7EBDCCF4
Трек не обнаружен в базе AccurateRip
Копирование... OK

Ни одного трека нет в базе AccurateRip

Ошибок не произошло

Конец отчёта

---- CUETools DB Plugin V2.1.6

[CTDB TOCID: XwfLzSMFJnv4cPjDUwYErhB68qs-] found
Submit result: XwfLzSMFJnv4cPjDUwYErhB68qs- has been confirmed
Track | CTDB Status
1 | (1/1) Accurately ripped
2 | (1/1) Accurately ripped
3 | (1/1) Accurately ripped
4 | (1/1) Accurately ripped
5 | (1/1) Accurately ripped
6 | (1/1) Accurately ripped
7 | (1/1) Accurately ripped
8 | (1/1) Accurately ripped
9 | (1/1) Accurately ripped
10 | (1/1) Accurately ripped
11 | (1/1) Accurately ripped
12 | (1/1) Accurately ripped
13 | (1/1) Accurately ripped
14 | (1/1) Accurately ripped

==== Контрольная сумма отчёта FF0B28209AA6690592F2C0C4D580ACF2774B4719943492723F5082C86C7CD50E ====
REM GENRE "Hard Rock" 
REM DATE 2021
REM DISCID BA0C6E0E
REM COMMENT "ExactAudioCopy v1.6"
PERFORMER "Victory"
TITLE "Gods Of Tomorrow"
REM COMPOSER ""
FILE "01. Intro Love & Hate.wav" WAVE
TRACK 01 AUDIO
TITLE "Intro Love & Hate"
PERFORMER "Victory"
REM COMPOSER ""
ISRC DEU602109616
INDEX 01 00:00:00
FILE "02. Love & Hate.wav" WAVE
TRACK 02 AUDIO
TITLE "Love & Hate"
PERFORMER "Victory"
REM COMPOSER ""
ISRC DEU602109710
INDEX 01 00:00:00
FILE "03. Gods Of Tomorrow.wav" WAVE
TRACK 03 AUDIO
TITLE "Gods Of Tomorrow"
PERFORMER "Victory"
REM COMPOSER ""
ISRC DEU602109610
INDEX 01 00:00:00
FILE "04. Cut To The Bone.wav" WAVE
TRACK 04 AUDIO
TITLE "Cut To The Bone"
PERFORMER "Victory"
REM COMPOSER ""
ISRC DEU602109608
INDEX 01 00:00:00
FILE "05. Dying In Your Arms.wav" WAVE
TRACK 05 AUDIO
TITLE "Dying In Your Arms"
PERFORMER "Victory"
REM COMPOSER ""
ISRC DEU602109609
INDEX 01 00:00:00
FILE "06. Hold On Me.wav" WAVE
TRACK 06 AUDIO
TITLE "Hold On Me"
PERFORMER "Victory"
REM COMPOSER ""
ISRC DEU602109615
INDEX 01 00:00:00
FILE "07. Into The Light.wav" WAVE
TRACK 07 AUDIO
TITLE "Into The Light"
PERFORMER "Victory"
REM COMPOSER ""
ISRC DEU602109613
INDEX 01 00:00:00
FILE "08. Mad.wav" WAVE
TRACK 08 AUDIO
TITLE "Mad"
PERFORMER "Victory"
REM COMPOSER ""
ISRC DEU602109617
INDEX 01 00:00:00
FILE "09. Unconditional Love.wav" WAVE
TRACK 09 AUDIO
TITLE "Unconditional Love"
PERFORMER "Victory"
REM COMPOSER ""
ISRC DEU602109611
INDEX 01 00:00:00
FILE "10. My Own Desire.wav" WAVE
TRACK 10 AUDIO
TITLE "My Own Desire"
PERFORMER "Victory"
REM COMPOSER ""
ISRC DEU602109618
INDEX 01 00:00:00
FILE "11. On Fire.wav" WAVE
TRACK 11 AUDIO
TITLE "On Fire"
PERFORMER "Victory"
REM COMPOSER ""
ISRC DEU602109606
INDEX 01 00:00:00
FILE "12. Rising Force.wav" WAVE
TRACK 12 AUDIO
TITLE "Rising Force"
PERFORMER "Victory"
REM COMPOSER ""
ISRC DEU602109614
INDEX 01 00:00:00
FILE "13. In Rock We Trust.wav" WAVE
TRACK 13 AUDIO
TITLE "In Rock We Trust"
PERFORMER "Victory"
REM COMPOSER ""
ISRC DEU602109612
INDEX 01 00:00:00
FILE "14. Leave You Alone.wav" WAVE
TRACK 14 AUDIO
TITLE "Leave You Alone"
PERFORMER "Victory"
REM COMPOSER ""
ISRC DEU602109607
INDEX 01 00:00:00

Этот торрент недоступен для скачивания без регистрации, однако доступен по публичной magnet-ссылке (источники с публичных трекеров). Перед использованием ссылки прочтите, пожалуйста Пользовательское соглашение, а также как можно дольше оставайтесь на раздаче! Для того, чтобы скачать сам торрент-файл (который видит больше источников), а также для того, чтобы поблагодарить релизера, вам необходимо зарегистрироваться. Если регистрироваться лень - вы можете также попробовать скачать релиз по нашим партнерским ссылкам ниже. Кроме того, зарегистрированным пользователям не показывается всплывающая реклама при скачивании.

[underver.se].t231630.torrent
Трекер: Зарегистрирован   [ 30.12.2021 16:00 ]  
Статус: проверено (by Бишеп at 30.12.2021 16:00)
Поблагодарили: пока никто не поблагодарил...
Тип торрента: публичный - доступные источники с открытых трекеров: 
Размер: 501 MB (занимает 0.11 DVDR, для записи нужно 1 болванка DVDR/RW)
 
 

Яндекс.Метрика powered by Sphinx


В Н И М А Н И Е
Сайт не распространяет и не хранит электронные версии произведений, а лишь бесплатно и без коммерческой выгоды (не требуя взамен платы,
SMS и т.д.) предоставляет доступ к создаваемому пользователями каталогу ссылок на торрент-файлы, которые содержат только списки хеш-сумм.
Убедительная просьба с жалобами обращаться напрямую к пользователю, разместившему торрент файл.

Вверх