Loading...
Error

(Rock) Тринадцатое созвездие (Судзуки и сочувствующие) - Песня без берегов (2021)

Статистика раздачи
Размер:  330 MB   |    Зарегистрирован:  9 месяцев   |    Скачан:  2 раза

Полного источника не было: 2 месяца 30 дней

Сидов:  0  |  0 KB/s  ]   Личеров:  0  |  0 KB/s  ]

* - сиды/пиры с внешних источников

   
 
Автор Сообщение

Бишеп Пол:Муж

30-Дек-2021 18:25

Тринадцатое созвездие (Судзуки и сочувствующие) - Песня без берегов

Жанр: Rock
Год выпуска: 2021
Носитель: CD
Производитель диска: Zrec.ru Records - ZREC 063
Аудиокодек: FLAC
Тип рипа: Image+.CUE
Битрейт аудио: lossless
Продолжительность: 00:48:38


Треклист:
01. Песня без берегов (04:40)
02. Шансон играют рокера (05:46)
03. Неудачник (04:29)
04. Театр (piano version) (04:09)
05. Леди (0:45)
06. Километры (04:58)
07. А я в вас давно влюблён (02:19)
08. Пошлость (02:46)
09. Ангел (02:29)
10. Я в пути (piano version) (07:33)
11. О бонус-треках (00:51)
12. Менделеич - Нет печальней на земле повести (02:32)
13. Менделеич - Триста лет (01:21)

Exact Audio Copy V1.6 from 23. October 2020 

Отчёт EAC об извлечении, выполненном 26. апреля 2021, 15:41

Тринадцатое Созвездие / Песня без берегов

Дисковод: HL-DT-STDVD+-RW GH70N Adapter: 1 ID: 0

Режим чтения : Достоверность
Использование точного потока : Да
Отключение кэша аудио : Да
Использование указателей C2 : Нет

Коррекция смещения при чтении : 667
Способность читать области Lead-in и Lead-out : Нет
Заполнение пропущенных сэмплов тишиной : Да
Удаление блоков с тишиной в начале и конце : Нет
При вычислениях CRC использовались нулевые сэмплы : Да
Интерфейс : Встроенный Win32-интерфейс для Win NT/2000

Выходной формат : Внутренние WAV-операции
Формат сэмплов : 44.1 кГц; 16 бит; стерео

TOC извлечённого CD

Трек | Старт | Длительность | Начальный сектор | Конечный сектор
---------------------------------------------------------------------
1 | 0:00.00 | 4:40.30 | 0 | 21029
2 | 4:40.30 | 5:45.39 | 21030 | 46943
3 | 10:25.69 | 4:29.17 | 46944 | 67135
4 | 14:55.11 | 4:08.64 | 67136 | 85799
5 | 19:04.00 | 4:44.46 | 85800 | 107145
6 | 23:48.46 | 4:58.01 | 107146 | 129496
7 | 28:46.47 | 2:19.37 | 129497 | 139958
8 | 31:06.09 | 2:46.22 | 139959 | 152430
9 | 33:52.31 | 2:28.49 | 152431 | 163579
10 | 36:21.05 | 7:33.11 | 163580 | 197565
11 | 43:54.16 | 0:51.01 | 197566 | 201391
12 | 44:45.17 | 2:31.63 | 201392 | 212779
13 | 47:17.05 | 1:21.24 | 212780 | 218878

Характеристики диапазона извлечения и сообщения об ошибках

Выбранный диапазон

Имя файла C:\Temp\Тринадцатое Созвездие - Песня без берегов.wav

Пиковый уровень 100.0 %
Скорость извлечения 4.3 X
Качество диапазона 100.0 %
CRC теста 1F361A94
CRC копии 1F361A94
Копирование... OK

Ошибок не произошло

AccurateRip: сводка
Трек 1 отсутствует в базе данных
Трек 2 отсутствует в базе данных
Трек 3 отсутствует в базе данных
Трек 4 отсутствует в базе данных
Трек 5 отсутствует в базе данных
Трек 6 отсутствует в базе данных
Трек 7 отсутствует в базе данных
Трек 8 отсутствует в базе данных
Трек 9 отсутствует в базе данных
Трек 10 отсутствует в базе данных
Трек 11 отсутствует в базе данных
Трек 12 отсутствует в базе данных
Трек 13 отсутствует в базе данных
Ни одного трека нет в базе AccurateRip

Конец отчёта

---- CUETools DB Plugin V2.1.6

[CTDB TOCID: _ZZHAyXKGFT8rlCWWmD5NrNW6WI-] disk not present in database
Submit result: _ZZHAyXKGFT8rlCWWmD5NrNW6WI- has been uploaded

==== Контрольная сумма отчёта 1CD7CF8B092CA846DDFFEC355343117DD739B00B8B2B7F3F4E2E67428B930969 ====
REM GENRE Rock 
REM DATE 2021
REM DISCID C70B660D
REM COMMENT "ExactAudioCopy v1.6"
PERFORMER "Тринадцатое Созвездие"
TITLE "Песня без берегов"
REM COMPOSER ""
FILE "Тринадцатое Созвездие - Песня без берегов.flac" WAVE
TRACK 01 AUDIO
TITLE "Песня без берегов"
PERFORMER "Тринадцатое Созвездие"
REM COMPOSER ""
INDEX 01 00:00:00
TRACK 02 AUDIO
TITLE "Шансон играют рокера"
PERFORMER "Тринадцатое Созвездие"
REM COMPOSER ""
INDEX 01 04:40:30
TRACK 03 AUDIO
TITLE "Неудачник"
PERFORMER "Тринадцатое Созвездие"
REM COMPOSER ""
INDEX 01 10:25:69
TRACK 04 AUDIO
TITLE "Театр (piano version)"
PERFORMER "Тринадцатое Созвездие"
REM COMPOSER ""
INDEX 01 14:55:11
TRACK 05 AUDIO
TITLE "Леди"
PERFORMER "Тринадцатое Созвездие"
REM COMPOSER ""
INDEX 01 19:04:00
TRACK 06 AUDIO
TITLE "Километры"
PERFORMER "Тринадцатое Созвездие"
REM COMPOSER ""
INDEX 01 23:48:46
TRACK 07 AUDIO
TITLE "А я в вас давно влюблён"
PERFORMER "Тринадцатое Созвездие"
REM COMPOSER ""
INDEX 01 28:46:47
TRACK 08 AUDIO
TITLE "Пошлость"
PERFORMER "Тринадцатое Созвездие"
REM COMPOSER ""
INDEX 01 31:06:09
TRACK 09 AUDIO
TITLE "Ангел"
PERFORMER "Тринадцатое Созвездие"
REM COMPOSER ""
INDEX 01 33:52:31
TRACK 10 AUDIO
TITLE "Я в пути (piano version)"
PERFORMER "Тринадцатое Созвездие"
REM COMPOSER ""
INDEX 01 36:21:05
TRACK 11 AUDIO
TITLE "О бонус-треках"
PERFORMER "Тринадцатое Созвездие"
REM COMPOSER ""
INDEX 01 43:54:16
TRACK 12 AUDIO
TITLE "Нет печальней на земле повести"
PERFORMER "Менделеич"
REM COMPOSER ""
INDEX 01 44:45:17
TRACK 13 AUDIO
TITLE "Триста лет"
PERFORMER "Менделеич"
REM COMPOSER ""
INDEX 01 47:17:05

Этот торрент недоступен для скачивания без регистрации, однако доступен по публичной magnet-ссылке (источники с публичных трекеров). Перед использованием ссылки прочтите, пожалуйста Пользовательское соглашение, а также как можно дольше оставайтесь на раздаче! Для того, чтобы скачать сам торрент-файл (который видит больше источников), а также для того, чтобы поблагодарить релизера, вам необходимо зарегистрироваться. Если регистрироваться лень - вы можете также попробовать скачать релиз по нашим партнерским ссылкам ниже. Кроме того, зарегистрированным пользователям не показывается всплывающая реклама при скачивании.

[underver.se].t231633.torrent
Трекер: Зарегистрирован   [ 30.12.2021 18:25 ]  
Статус: проверено (by Бишеп at 30.12.2021 18:25)
Поблагодарили: пока никто не поблагодарил...
Тип торрента: публичный - доступные источники с открытых трекеров: 
Размер: 330 MB (занимает 0.07 DVDR, для записи нужно 1 болванка DVDR/RW)
 
 

Яндекс.Метрика powered by Sphinx


В Н И М А Н И Е
Сайт не распространяет и не хранит электронные версии произведений, а лишь бесплатно и без коммерческой выгоды (не требуя взамен платы,
SMS и т.д.) предоставляет доступ к создаваемому пользователями каталогу ссылок на торрент-файлы, которые содержат только списки хеш-сумм.
Убедительная просьба с жалобами обращаться напрямую к пользователю, разместившему торрент файл.

Вверх