Loading...
Error

(Rock) Алексей Кортнев И Музыкальные Руководители - Не Легенды Русского Шансона – Том 6 (2003) [FLAC (Image+.CUE), Lossless]

Статистика раздачи
Размер:  310 MB   |    Зарегистрирован:  8 месяцев   |    Скачан:  6 раз

Полного источника не было: 2 месяца 5 дней

Сидов:  0  |  0 KB/s  ]   Личеров:  0  |  0 KB/s  ]

* - сиды/пиры с внешних источников

   
 
Автор Сообщение

Бишеп Пол:Муж

31-Дек-2021 11:42

Алексей Кортнев И Музыкальные Руководители - Не Легенды Русского Шансона

Жанр: Rock
Год выпуска: 2003
Носитель: CD
Производитель диска: Мистерия Звука - MZ-119-2
Аудиокодек: FLAC
Тип рипа: Image+.CUE
Битрейт аудио: lossless
Продолжительность: 00:46:36


Треклист:
01. Ржавая вода
02. Плющит
03. Лопухи
04. Несчастная любовь криминального элемента
05. Мурка (The Cat)
06. Про Галю
07. Медсестра
08. Метрополитен (Шуточная песня)
09. Ветер
10. Герасим и Му - му
11. Удалось (All Stars Mix)
12. Он видит сон
13. Герасим и Му - му (вместе с В.Качаном)

Exact Audio Copy V1.3 from 2. September 2016 

Отчёт EAC об извлечении, выполненном 19. ноября 2021, 7:54

Алексей Кортнев и Музыкальные руководители / Алексей Кортнев и Музыкальные руководители

Дисковод: ATAPI DVD A DH16A6S Adapter: 1 ID: 0

Режим чтения : Достоверность
Использование точного потока : Да
Отключение кэша аудио : Да
Использование указателей C2 : Нет

Коррекция смещения при чтении : 6
Способность читать области Lead-in и Lead-out : Нет
Заполнение пропущенных сэмплов тишиной : Да
Удаление блоков с тишиной в начале и конце : Нет
При вычислениях CRC использовались нулевые сэмплы : Да
Интерфейс : Встроенный Win32-интерфейс для Win NT/2000

Выходной формат : Пользовательский кодировщик
Выбранный битрейт : 768 kBit/s
Качество : Высокий
Добавление ID3-тега : Нет
Утилита сжатия : C:\Program Files\Exact Audio Copy\FLAC\FLAC.EXE
Дополнительные параметры : -V -8 -T "Date=%year%" -T "Genre=%genre%" %source%

TOC извлечённого CD

Трек | Старт | Длительность | Начальный сектор | Конечный сектор
---------------------------------------------------------------------
1 | 0:00.00 | 3:20.68 | 0 | 15067
2 | 3:20.68 | 3:22.52 | 15068 | 30269
3 | 6:43.45 | 2:48.19 | 30270 | 42888
4 | 9:31.64 | 4:15.70 | 42889 | 62083
5 | 13:47.59 | 3:27.73 | 62084 | 77681
6 | 17:15.57 | 3:26.58 | 77682 | 93189
7 | 20:42.40 | 4:37.01 | 93190 | 113965
8 | 25:19.41 | 2:54.26 | 113966 | 127041
9 | 28:13.67 | 3:50.65 | 127042 | 144356
10 | 32:04.57 | 3:16.11 | 144357 | 159067
11 | 35:20.68 | 3:35.50 | 159068 | 175242
12 | 38:56.43 | 4:24.56 | 175243 | 195098
13 | 43:21.24 | 3:14.31 | 195099 | 209679

Характеристики диапазона извлечения и сообщения об ошибках

Выбранный диапазон

Имя файла D:\Музыка\Алексей Кортнев и Музыкальные руководители - Алексей Кортнев и Музыкальные руководители\Алексей Кортнев и Музыкальные руководители - Алексей Кортнев и Музыкальные руководители.wav

Пиковый уровень 98.8 %
Скорость извлечения 5.4 X
Качество диапазона 100.0 %
CRC теста 0ED015C7
CRC копии 0ED015C7
Копирование... OK

Ошибок не произошло

AccurateRip: сводка
Трек 1 : извлечено точно (доверие 2) [CB6F9C96] (AR v1)
Трек 2 : извлечено точно (доверие 2) [FA04C6EB] (AR v1)
Трек 3 : извлечено точно (доверие 2) [B29A5686] (AR v1)
Трек 4 : извлечено точно (доверие 2) [78780D0D] (AR v1)
Трек 5 : извлечено точно (доверие 2) [A547500F] (AR v1)
Трек 6 : извлечено точно (доверие 2) [46D25E1B] (AR v1)
Трек 7 : извлечено точно (доверие 2) [B552127A] (AR v1)
Трек 8 : извлечено точно (доверие 2) [DF035C5F] (AR v1)
Трек 9 : извлечено точно (доверие 2) [3E644386] (AR v1)
Трек 10 : извлечено точно (доверие 2) [4D7E4D9B] (AR v1)
Трек 11 : извлечено точно (доверие 2) [DC04CE10] (AR v1)
Трек 12 : извлечено точно (доверие 2) [7120E814] (AR v1)
Трек 13 : извлечено точно (доверие 2) [DD808E31] (AR v1)
Все треки извлечены точно

Конец отчёта

---- CUETools DB Plugin V2.1.6

[CTDB TOCID: V85zBpyFE1aFsv15ZVXouMG.IAA-] found
Submit result: V85zBpyFE1aFsv15ZVXouMG.IAA- has been confirmed
Track | CTDB Status
1 | (3/3) Accurately ripped
2 | (3/3) Accurately ripped
3 | (3/3) Accurately ripped
4 | (3/3) Accurately ripped
5 | (3/3) Accurately ripped
6 | (3/3) Accurately ripped
7 | (3/3) Accurately ripped
8 | (2/3) Accurately ripped
9 | (3/3) Accurately ripped
10 | (3/3) Accurately ripped
11 | (3/3) Accurately ripped
12 | (3/3) Accurately ripped
13 | (3/3) Accurately ripped

==== Контрольная сумма отчёта 9806FBF20DE38E5791CCA82C752687166ABE7F78330FFADF437A85C49E4EEACE ====
REM GENRE Rock 
REM DATE 2003
REM DISCID 990AEB0D
REM COMMENT "ExactAudioCopy v1.3"
PERFORMER "Алексей Кортнев и Музыкальные руководители"
TITLE "Алексей Кортнев и Музыкальные руководители"
REM COMPOSER ""
FILE "Алексей Кортнев и Музыкальные руководители - Алексей Кортнев и Музыкальные руководители.flac" WAVE
TRACK 01 AUDIO
TITLE "Ржавая вода"
PERFORMER "Алексей Кортнев и Музыкальные руководители"
REM COMPOSER ""
INDEX 01 00:00:00
TRACK 02 AUDIO
TITLE "Плющит"
PERFORMER "Алексей Кортнев и Музыкальные руководители"
REM COMPOSER ""
INDEX 01 03:20:68
TRACK 03 AUDIO
TITLE "Лопухи"
PERFORMER "Алексей Кортнев и Музыкальные руководители"
REM COMPOSER ""
INDEX 01 06:43:45
TRACK 04 AUDIO
TITLE "Несчастная любовь криминального элемента"
PERFORMER "Алексей Кортнев и Музыкальные руководители"
REM COMPOSER ""
INDEX 01 09:31:64
TRACK 05 AUDIO
TITLE "Мурка (The Cat)"
PERFORMER "Алексей Кортнев и Музыкальные руководители"
REM COMPOSER ""
INDEX 01 13:47:59
TRACK 06 AUDIO
TITLE "Про Галю"
PERFORMER "Алексей Кортнев и Музыкальные руководители"
REM COMPOSER ""
INDEX 01 17:15:57
TRACK 07 AUDIO
TITLE "Медсестра"
PERFORMER "Алексей Кортнев и Музыкальные руководители"
REM COMPOSER ""
INDEX 01 20:42:40
TRACK 08 AUDIO
TITLE "Метрополитен (шуточная песня)"
PERFORMER "Алексей Кортнев и Музыкальные руководители"
REM COMPOSER ""
INDEX 01 25:19:41
TRACK 09 AUDIO
TITLE "Ветер"
PERFORMER "Алексей Кортнев и Музыкальные руководители"
REM COMPOSER ""
INDEX 01 28:13:67
TRACK 10 AUDIO
TITLE "Герасим и Му-Му"
PERFORMER "Алексей Кортнев и Музыкальные руководители"
REM COMPOSER ""
INDEX 01 32:04:57
TRACK 11 AUDIO
TITLE "Удалось (All Stars Mix)"
PERFORMER "Алексей Кортнев и Музыкальные руководители"
REM COMPOSER ""
INDEX 01 35:20:68
TRACK 12 AUDIO
TITLE "Он видит сон"
PERFORMER "Алексей Кортнев и Музыкальные руководители"
REM COMPOSER ""
INDEX 01 38:56:43
TRACK 13 AUDIO
TITLE "Герасим и Му-Му (вместе с В.Качаном)"
PERFORMER "Алексей Кортнев и Музыкальные руководители"
REM COMPOSER ""
INDEX 01 43:21:24

Этот торрент недоступен для скачивания без регистрации, однако доступен по публичной magnet-ссылке (источники с публичных трекеров). Перед использованием ссылки прочтите, пожалуйста Пользовательское соглашение, а также как можно дольше оставайтесь на раздаче! Для того, чтобы скачать сам торрент-файл (который видит больше источников), а также для того, чтобы поблагодарить релизера, вам необходимо зарегистрироваться. Если регистрироваться лень - вы можете также попробовать скачать релиз по нашим партнерским ссылкам ниже. Кроме того, зарегистрированным пользователям не показывается всплывающая реклама при скачивании.

[underver.se].t231712.torrent
Трекер: Зарегистрирован   [ 31.12.2021 11:42 ]  
Статус: проверено (by Бишеп at 31.12.2021 11:42)
Поблагодарили: 1 человек
Тип торрента: публичный - доступные источники с открытых трекеров: 
Размер: 310 MB (занимает 0.07 DVDR, для записи нужно 1 болванка DVDR/RW)
 
 

Яндекс.Метрика powered by Sphinx


В Н И М А Н И Е
Сайт не распространяет и не хранит электронные версии произведений, а лишь бесплатно и без коммерческой выгоды (не требуя взамен платы,
SMS и т.д.) предоставляет доступ к создаваемому пользователями каталогу ссылок на торрент-файлы, которые содержат только списки хеш-сумм.
Убедительная просьба с жалобами обращаться напрямую к пользователю, разместившему торрент файл.

Вверх