Loading...
Error

(Power Metal) NorthTale - Eternal Flame (2021) [FLAC (Image+.CUE), Lossless]

Статистика раздачи
Размер:  620 MB   |    Зарегистрирован:  8 месяцев   |    Скачан:  1 раз

Полного источника не было: 5 месяцев 24 дня

Сидов:  0  |  0 KB/s  ]   Личеров:  0  |  0 KB/s  ]

* - сиды/пиры с внешних источников

   
 
Автор Сообщение

Бишеп Пол:Муж

01-Янв-2022 10:20

NorthTale - Eternal Flame

Жанр: Power Metal
Год выпуска: 2021
Носитель: CD
Производитель диска: Nuclear Blast - NB 5764-2
Аудиокодек: FLAC
Тип рипа: Image+.CUE
Битрейт аудио: lossless
Продолжительность: 01:05:17


Треклист:
01. Only Human
02. Wings Of Salvation
03. Future Calls (ft. Tim & Kai Hansen)
04. The Land Of Mystic Rites
05. Midnight Bells
06. Eternal Flame
07. In The Name Of God
08. Ride The Storm
09. King Of Your Illusion
10. Judas Be My Guide (Iron Maiden cover - ft. Jonas Heidgert)
11. Nature's Revenge
12. Ivy (outro)

Exact Audio Copy V1.6 from 23. October 2020 

EAC extraction logfile from 25. November 2021, 12:30

NorthTale / Eternal Flame

Used drive : TSSTcorpCDDVDW SH-224FB Adapter: 1 ID: 0

Read mode : Secure
Utilize accurate stream : Yes
Defeat audio cache : Yes
Make use of C2 pointers : No

Read offset correction : 6
Overread into Lead-In and Lead-Out : No
Fill up missing offset samples with silence : Yes
Delete leading and trailing silent blocks : No
Null samples used in CRC calculations : Yes
Used interface : Native Win32 interface for Win NT & 2000

Used output format : User Defined Encoder
Selected bitrate : 1024 kBit/s
Quality : High
Add ID3 tag : No
Command line compressor : C:\Program Files (x86)\Exact Audio Copy\Flac\flac.exe
Additional command line options : -V -8 -T "Date=%year%" -T "Genre=%genre%" -T"COMMENT=Ripped by Gra.mi" -8 -V %source%

TOC of the extracted CD

Track | Start | Length | Start sector | End sector
---------------------------------------------------------
1 | 0:00.00 | 3:43.18 | 0 | 16742
2 | 3:43.18 | 7:34.48 | 16743 | 50840
3 | 11:17.66 | 5:21.19 | 50841 | 74934
4 | 16:39.10 | 6:42.04 | 74935 | 105088
5 | 23:21.14 | 4:19.43 | 105089 | 124556
6 | 27:40.57 | 4:28.03 | 124557 | 144659
7 | 32:08.60 | 4:25.31 | 144660 | 164565
8 | 36:34.16 | 4:48.62 | 164566 | 186227
9 | 41:23.03 | 4:15.17 | 186228 | 205369
10 | 45:38.20 | 3:04.47 | 205370 | 219216
11 | 48:42.67 | 11:24.73 | 219217 | 270589
12 | 60:07.65 | 5:09.22 | 270590 | 293786

Range status and errors

Selected range

Filename D:\NorthTale - Eternal Flame\NorthTale - Eternal Flame.wav

Peak level 99.2 %
Extraction speed 3.2 X
Range quality 100.0 %
Test CRC 83439983
Copy CRC 83439983
Copy OK

No errors occurred

AccurateRip summary
Track 1 not present in database
Track 2 not present in database
Track 3 not present in database
Track 4 not present in database
Track 5 not present in database
Track 6 not present in database
Track 7 not present in database
Track 8 not present in database
Track 9 not present in database
Track 10 not present in database
Track 11 not present in database
Track 12 not present in database
None of the tracks are present in the AccurateRip database

End of status report

---- CUETools DB Plugin V2.1.6

[CTDB TOCID: R_DxF1af9uQiXnWHitxmhqbuGKA-] found
Submit result: R_DxF1af9uQiXnWHitxmhqbuGKA- has been confirmed
Track | CTDB Status
1 | (1/1) Accurately ripped
2 | (1/1) Accurately ripped
3 | (1/1) Accurately ripped
4 | (1/1) Accurately ripped
5 | (1/1) Accurately ripped
6 | (1/1) Accurately ripped
7 | (1/1) Accurately ripped
8 | (1/1) Accurately ripped
9 | (1/1) Accurately ripped
10 | (1/1) Accurately ripped
11 | (1/1) Accurately ripped
12 | (1/1) Accurately ripped

==== Log checksum 176E12C522192F676131F4D4D5C83A5D18A432ED83E2D18E294D859FADA77030 ====
REM DATE 2021 
REM DISCID 9C0F4D0C
REM COMMENT "ExactAudioCopy v1.6"
PERFORMER "NorthTale"
TITLE "Eternal Flame"
REM COMPOSER ""
FILE "NorthTale - Eternal Flame.flac" WAVE
TRACK 01 AUDIO
TITLE "Only Human"
PERFORMER "NorthTale"
REM COMPOSER ""
INDEX 01 00:00:00
TRACK 02 AUDIO
TITLE "Wings of Salvation"
PERFORMER "NorthTale"
REM COMPOSER ""
INDEX 01 03:43:18
TRACK 03 AUDIO
TITLE "Future Calls"
PERFORMER "NorthTale"
REM COMPOSER ""
INDEX 01 11:17:66
TRACK 04 AUDIO
TITLE "The Land of Mystic Rites"
PERFORMER "NorthTale"
REM COMPOSER ""
INDEX 01 16:39:10
TRACK 05 AUDIO
TITLE "Midnight Bells"
PERFORMER "NorthTale"
REM COMPOSER ""
INDEX 01 23:21:14
TRACK 06 AUDIO
TITLE "Eternal Flame"
PERFORMER "NorthTale"
REM COMPOSER ""
INDEX 01 27:40:57
TRACK 07 AUDIO
TITLE "In The Name of God"
PERFORMER "NorthTale"
REM COMPOSER ""
INDEX 01 32:08:60
TRACK 08 AUDIO
TITLE "Ride The Storm"
PERFORMER "NorthTale"
REM COMPOSER ""
INDEX 01 36:34:16
TRACK 09 AUDIO
TITLE "King Of Your Illusion"
PERFORMER "NorthTale"
REM COMPOSER ""
INDEX 01 41:23:03
TRACK 10 AUDIO
TITLE "Judas Be My Guide"
PERFORMER "NorthTale"
REM COMPOSER ""
INDEX 01 45:38:20
TRACK 11 AUDIO
TITLE "Nature's Revenge"
PERFORMER "NorthTale"
REM COMPOSER ""
INDEX 01 48:42:67
TRACK 12 AUDIO
TITLE "Ivy"
PERFORMER "NorthTale"
REM COMPOSER ""
INDEX 01 60:07:65

Этот торрент недоступен для скачивания без регистрации, однако доступен по публичной magnet-ссылке (источники с публичных трекеров). Перед использованием ссылки прочтите, пожалуйста Пользовательское соглашение, а также как можно дольше оставайтесь на раздаче! Для того, чтобы скачать сам торрент-файл (который видит больше источников), а также для того, чтобы поблагодарить релизера, вам необходимо зарегистрироваться. Если регистрироваться лень - вы можете также попробовать скачать релиз по нашим партнерским ссылкам ниже. Кроме того, зарегистрированным пользователям не показывается всплывающая реклама при скачивании.

[underver.se].t231885.torrent
Трекер: Зарегистрирован   [ 01.01.2022 10:20 ]  
Статус: проверено (by Бишеп at 01.01.2022 10:20)
Поблагодарили: пока никто не поблагодарил...
Тип торрента: публичный - доступные источники с открытых трекеров: 
Размер: 620 MB (занимает 0.14 DVDR, для записи нужно 1 болванка DVDR/RW)
 
 

Яндекс.Метрика powered by Sphinx


В Н И М А Н И Е
Сайт не распространяет и не хранит электронные версии произведений, а лишь бесплатно и без коммерческой выгоды (не требуя взамен платы,
SMS и т.д.) предоставляет доступ к создаваемому пользователями каталогу ссылок на торрент-файлы, которые содержат только списки хеш-сумм.
Убедительная просьба с жалобами обращаться напрямую к пользователю, разместившему торрент файл.

Вверх