Loading...
Error

(Heavy Metal, Power Metal) Sabaton - Steel Commanders (2021) EP [FLAC (Image+.CUE), Lossless]

Статистика раздачи
Размер:  329 MB   |    Зарегистрирован:  8 месяцев   |    Скачан:  5 раз

Полного источника не было: 3 месяца 16 дней

Сидов:  0  |  0 KB/s  ]   Личеров:  0  |  0 KB/s  ]

* - сиды/пиры с внешних источников

   
 
Автор Сообщение

Бишеп Пол:Муж

01-Янв-2022 16:54

Sabaton - Steel Commanders

Жанр: Heavy Metal, Power Metal
Год выпуска: 2021
Носитель: CD
Производитель диска: Nuclear Blast - NB 61918-2
Аудиокодек: FLAC
Тип рипа: Image+.CUE
Битрейт аудио: lossless
Продолжительность: 00:36:43


Треклист:
01. Steel Commanders
02. Metal Trilogy
03. Defence Of Moscow
04. Kingdom Come
05. The Royal Guard
06. Livgardet
07. Angels Calling
08. Bismarck

Exact Audio Copy V1.6 from 23. October 2020 

EAC extraction logfile from 27. November 2021, 22:58

Sabaton / Steel Commanders

Used drive : ASUS DRW-24B3ST Adapter: 1 ID: 2

Read mode : Secure
Utilize accurate stream : Yes
Defeat audio cache : Yes
Make use of C2 pointers : No

Read offset correction : 6
Overread into Lead-In and Lead-Out : No
Fill up missing offset samples with silence : Yes
Delete leading and trailing silent blocks : No
Null samples used in CRC calculations : Yes
Used interface : Installed external ASPI interface

Used output format : User Defined Encoder
Selected bitrate : 1024 kBit/s
Quality : High
Add ID3 tag : No
Command line compressor : C:\Program Files (x86)\Exact Audio Copy\FLAC\FLAC.EXE
Additional command line options : -V -8 -T "Date=%year%" -T "Genre=%genre%" -T"COMMENT=CDRip for https://t.me/me4ucom (Over a thousand unique discographies in Lossless)" -8 -V %source%

TOC of the extracted CD

Track | Start | Length | Start sector | End sector
---------------------------------------------------------
1 | 0:00.00 | 3:51.00 | 0 | 17324
2 | 3:51.00 | 4:18.02 | 17325 | 36676
3 | 8:09.02 | 4:08.74 | 36677 | 55350
4 | 12:18.01 | 4:04.32 | 55351 | 73682
5 | 16:22.33 | 4:37.43 | 73683 | 94500
6 | 21:00.01 | 4:35.45 | 94501 | 115170
7 | 25:35.46 | 5:53.20 | 115171 | 141665
8 | 31:28.66 | 5:13.73 | 141666 | 165213

Range status and errors

Selected range

Filename C:\CDRip for Telegram Channel me4ucom\Sabaton - Steel Commanders.wav

Peak level 100.0 %
Extraction speed 5.5 X
Range quality 99.9 %
Test CRC 31B6FCA8
Copy CRC 31B6FCA8
Copy OK

No errors occurred

AccurateRip summary
Track 1 not present in database
Track 2 not present in database
Track 3 not present in database
Track 4 not present in database
Track 5 not present in database
Track 6 not present in database
Track 7 not present in database
Track 8 not present in database
None of the tracks are present in the AccurateRip database

End of status report

---- CUETools DB Plugin V2.1.6

[CTDB TOCID: 4bfmGNvHrmUCRCILJIn_9Y05XsU-] found
Submit result: already submitted
Track | CTDB Status
1 | (1/1) Accurately ripped
2 | (1/1) Accurately ripped
3 | (1/1) Accurately ripped
4 | (1/1) Accurately ripped
5 | (1/1) Accurately ripped
6 | (1/1) Accurately ripped
7 | (1/1) Accurately ripped
8 | (1/1) Accurately ripped

==== Log checksum 6157AF7C9F1617467D1CF7598AE899590017CD96B54CF67B7849A19F097C7732 ====
REM GENRE "Heavy Metal" 
REM DATE 2021
REM DISCID 65089A08
REM COMMENT "ExactAudioCopy v1.6"
PERFORMER "Sabaton"
TITLE "Steel Commanders"
REM COMPOSER ""
FILE "Sabaton - Steel Commanders.flac" WAVE
TRACK 01 AUDIO
TITLE "Steel Commanders"
PERFORMER "Sabaton"
REM COMPOSER ""
FLAGS DCP
INDEX 01 00:00:00
TRACK 02 AUDIO
TITLE "Metal Trilogy"
PERFORMER "Sabaton"
REM COMPOSER ""
FLAGS DCP
INDEX 01 03:51:00
TRACK 03 AUDIO
TITLE "Defence of Moscow"
PERFORMER "Sabaton"
REM COMPOSER ""
FLAGS DCP
INDEX 01 08:09:02
TRACK 04 AUDIO
TITLE "Kingdom Come"
PERFORMER "Sabaton"
REM COMPOSER ""
FLAGS DCP
INDEX 01 12:18:01
TRACK 05 AUDIO
TITLE "The Royal Guard"
PERFORMER "Sabaton"
REM COMPOSER ""
FLAGS DCP
INDEX 01 16:22:33
TRACK 06 AUDIO
TITLE "Livgardet"
PERFORMER "Sabaton"
REM COMPOSER ""
FLAGS DCP
INDEX 01 21:00:01
TRACK 07 AUDIO
TITLE "Angels Calling"
PERFORMER "Sabaton"
REM COMPOSER ""
FLAGS DCP
INDEX 01 25:35:46
TRACK 08 AUDIO
TITLE "Bismarck"
PERFORMER "Sabaton"
REM COMPOSER ""
FLAGS DCP
INDEX 01 31:28:66

Этот торрент недоступен для скачивания без регистрации, однако доступен по публичной magnet-ссылке (источники с публичных трекеров). Перед использованием ссылки прочтите, пожалуйста Пользовательское соглашение, а также как можно дольше оставайтесь на раздаче! Для того, чтобы скачать сам торрент-файл (который видит больше источников), а также для того, чтобы поблагодарить релизера, вам необходимо зарегистрироваться. Если регистрироваться лень - вы можете также попробовать скачать релиз по нашим партнерским ссылкам ниже. Кроме того, зарегистрированным пользователям не показывается всплывающая реклама при скачивании.

[underver.se].t231924.torrent
Трекер: Зарегистрирован   [ 01.01.2022 16:54 ]  
Статус: проверено (by Бишеп at 01.01.2022 16:54)
Поблагодарили: пока никто не поблагодарил...
Тип торрента: публичный - доступные источники с открытых трекеров: 
Размер: 329 MB (занимает 0.07 DVDR, для записи нужно 1 болванка DVDR/RW)
 
 

Яндекс.Метрика powered by Sphinx


В Н И М А Н И Е
Сайт не распространяет и не хранит электронные версии произведений, а лишь бесплатно и без коммерческой выгоды (не требуя взамен платы,
SMS и т.д.) предоставляет доступ к создаваемому пользователями каталогу ссылок на торрент-файлы, которые содержат только списки хеш-сумм.
Убедительная просьба с жалобами обращаться напрямую к пользователю, разместившему торрент файл.

Вверх