Loading...
Error

(Power Metal, Symphonic Metal) Rhapsody Of Fire - Glory For Salvation (2021) [FLAC (Image+.CUE), Lossless]

Статистика раздачи
Размер:  624 MB   |    Зарегистрирован:  9 месяцев   |    Скачан:  2 раза

Полного источника не было: 2 месяца 27 дней

Сидов:  0  |  0 KB/s  ]   Личеров:  0  |  0 KB/s  ]

* - сиды/пиры с внешних источников

   
 
Автор Сообщение

Бишеп Пол:Муж

03-Янв-2022 15:53

Rhapsody Of Fire - Glory For Salvation

Жанр: Power Metal, Symphonic Metal
Год выпуска: 2021
Носитель: CD
Производитель диска: Фоно - FO1688CD
Аудиокодек: FLAC
Тип рипа: Image+.CUE
Битрейт аудио: lossless
Продолжительность: 01:06:03


Треклист:
01. Son Of Vengeance (05:46)
02. The Kingdom Of Ice (04:26)
03. Glory For Salvation (05:04)
04. Eternal Snow (01:34)
05. Terial The Hawk (04:49)
06. Maid Of The Secret Sand (05:08)
07. Abyss Of Pain II (10:45)
08. Infinitae Gloriae (04:31)
09. Magic Signs (04:52)
10. I'll Be Your Hero (05:29)
11. Chains Of Destiny (03:55)
12. Un'Ode Per L'Eroe (04:52)
13. La Esencia De Un Rey (04:52)

Exact Audio Copy V1.6 from 23. October 2020 

EAC extraction logfile from 6. December 2021, 0:13

Rhapsody Of Fire / Glory For Salvation

Used drive : ASUS DRW-24B3ST Adapter: 1 ID: 2

Read mode : Secure
Utilize accurate stream : Yes
Defeat audio cache : Yes
Make use of C2 pointers : No

Read offset correction : 6
Overread into Lead-In and Lead-Out : No
Fill up missing offset samples with silence : Yes
Delete leading and trailing silent blocks : No
Null samples used in CRC calculations : Yes
Used interface : Installed external ASPI interface

Used output format : User Defined Encoder
Selected bitrate : 1024 kBit/s
Quality : High
Add ID3 tag : No
Command line compressor : C:\Program Files (x86)\Exact Audio Copy\FLAC\FLAC.EXE
Additional command line options : -V -8 -T "Date=%year%" -T "Genre=%genre%" -T"COMMENT=CDRip for https://t.me/me4ucom (Over a thousand unique discographies in Lossless)" -8 -V %source%

TOC of the extracted CD

Track | Start | Length | Start sector | End sector
---------------------------------------------------------
1 | 0:00.00 | 5:46.04 | 0 | 25953
2 | 5:46.04 | 4:25.48 | 25954 | 45876
3 | 10:11.52 | 5:04.26 | 45877 | 68702
4 | 15:16.03 | 1:33.68 | 68703 | 75745
5 | 16:49.71 | 4:49.24 | 75746 | 97444
6 | 21:39.20 | 5:07.56 | 97445 | 120525
7 | 26:47.01 | 10:44.42 | 120526 | 168867
8 | 37:31.43 | 4:31.03 | 168868 | 189195
9 | 42:02.46 | 4:52.35 | 189196 | 211130
10 | 46:55.06 | 5:29.11 | 211131 | 235816
11 | 52:24.17 | 3:55.07 | 235817 | 253448
12 | 56:19.24 | 4:51.67 | 253449 | 275340
13 | 61:11.16 | 4:51.69 | 275341 | 297234

Range status and errors

Selected range

Filename C:\CDRip for Telegram Channel me4ucom\Rhapsody Of Fire - Glory For Salvation.wav

Peak level 99.8 %
Extraction speed 6.4 X
Range quality 100.0 %
Test CRC 21CBEE7F
Copy CRC 21CBEE7F
Copy OK

No errors occurred

AccurateRip summary
Track 1 not present in database
Track 2 not present in database
Track 3 not present in database
Track 4 not present in database
Track 5 not present in database
Track 6 not present in database
Track 7 not present in database
Track 8 not present in database
Track 9 not present in database
Track 10 not present in database
Track 11 not present in database
Track 12 not present in database
Track 13 not present in database
None of the tracks are present in the AccurateRip database

End of status report

---- CUETools DB Plugin V2.1.6

[CTDB TOCID: rFNiy.6giM7.CpxVBpndQ3WFfDU-] found
Submit result: rFNiy.6giM7.CpxVBpndQ3WFfDU- has been confirmed
Track | CTDB Status
1 | (16/16) Accurately ripped
2 | (16/16) Accurately ripped
3 | (16/16) Accurately ripped
4 | (16/16) Accurately ripped
5 | (16/16) Accurately ripped
6 | (16/16) Accurately ripped
7 | (16/16) Accurately ripped
8 | (16/16) Accurately ripped
9 | (16/16) Accurately ripped
10 | (16/16) Accurately ripped
11 | (16/16) Accurately ripped
12 | (16/16) Accurately ripped
13 | (16/16) Accurately ripped

==== Log checksum 7A601C2DACB53431EE440B7DE997F48E27815094BB4A5A00C2CACB8C4C999C4B ====
REM GENRE "Power Metal" 
REM DATE 2021
REM DISCID A00F7B0D
REM COMMENT "ExactAudioCopy v1.6"
PERFORMER "Rhapsody Of Fire"
TITLE "Glory For Salvation"
REM COMPOSER ""
FILE "Rhapsody Of Fire - Glory For Salvation.flac" WAVE
TRACK 01 AUDIO
TITLE "Son Of Vengeance"
PERFORMER "Rhapsody Of Fire"
REM COMPOSER ""
ISRC DEU602109342
INDEX 01 00:00:00
TRACK 02 AUDIO
TITLE "The Kingdom Of Ice"
PERFORMER "Rhapsody Of Fire"
REM COMPOSER ""
ISRC DEU602109343
INDEX 01 05:46:04
TRACK 03 AUDIO
TITLE "Glory For Salvation"
PERFORMER "Rhapsody Of Fire"
REM COMPOSER ""
ISRC DEU602109344
INDEX 01 10:11:52
TRACK 04 AUDIO
TITLE "Eternal Snow"
PERFORMER "Rhapsody Of Fire"
REM COMPOSER ""
ISRC DEU602109345
INDEX 01 15:16:03
TRACK 05 AUDIO
TITLE "Terial The Hawk"
PERFORMER "Rhapsody Of Fire"
REM COMPOSER ""
ISRC DEU602109346
INDEX 01 16:49:71
TRACK 06 AUDIO
TITLE "Maid Of The Secret Sand"
PERFORMER "Rhapsody Of Fire"
REM COMPOSER ""
ISRC DEU602109347
INDEX 01 21:39:20
TRACK 07 AUDIO
TITLE "Abyss Of Pain II"
PERFORMER "Rhapsody Of Fire"
REM COMPOSER ""
ISRC DEU602109348
INDEX 01 26:47:01
TRACK 08 AUDIO
TITLE "Infinitae Gloriae"
PERFORMER "Rhapsody Of Fire"
REM COMPOSER ""
ISRC DEU602109349
INDEX 01 37:31:43
TRACK 09 AUDIO
TITLE "Magic Signs"
PERFORMER "Rhapsody Of Fire"
REM COMPOSER ""
ISRC DEU602109350
INDEX 01 42:02:46
TRACK 10 AUDIO
TITLE "I'll Be Your Hero"
PERFORMER "Rhapsody Of Fire"
REM COMPOSER ""
ISRC DEU602109597
INDEX 01 46:55:06
TRACK 11 AUDIO
TITLE "Chains Of Destiny"
PERFORMER "Rhapsody Of Fire"
REM COMPOSER ""
ISRC DEU602109352
INDEX 01 52:24:17
TRACK 12 AUDIO
TITLE "Un'Ode Per L'Eroe"
PERFORMER "Rhapsody Of Fire"
REM COMPOSER ""
ISRC DEU602109470
INDEX 01 56:19:24
TRACK 13 AUDIO
TITLE "La Esencia De Un Rey"
PERFORMER "Rhapsody Of Fire"
REM COMPOSER ""
ISRC DEU602109471
INDEX 01 61:11:16

Этот торрент недоступен для скачивания без регистрации, однако доступен по публичной magnet-ссылке (источники с публичных трекеров). Перед использованием ссылки прочтите, пожалуйста Пользовательское соглашение, а также как можно дольше оставайтесь на раздаче! Для того, чтобы скачать сам торрент-файл (который видит больше источников), а также для того, чтобы поблагодарить релизера, вам необходимо зарегистрироваться. Если регистрироваться лень - вы можете также попробовать скачать релиз по нашим партнерским ссылкам ниже. Кроме того, зарегистрированным пользователям не показывается всплывающая реклама при скачивании.

[underver.se].t232103.torrent
Трекер: Зарегистрирован   [ 03.01.2022 15:53 ]  
Статус: проверено (by Бишеп at 03.01.2022 15:53)
Поблагодарили: пока никто не поблагодарил...
Тип торрента: публичный - доступные источники с открытых трекеров: 
Размер: 624 MB (занимает 0.14 DVDR, для записи нужно 1 болванка DVDR/RW)
 
 

Яндекс.Метрика powered by Sphinx


В Н И М А Н И Е
Сайт не распространяет и не хранит электронные версии произведений, а лишь бесплатно и без коммерческой выгоды (не требуя взамен платы,
SMS и т.д.) предоставляет доступ к создаваемому пользователями каталогу ссылок на торрент-файлы, которые содержат только списки хеш-сумм.
Убедительная просьба с жалобами обращаться напрямую к пользователю, разместившему торрент файл.

Вверх