Loading...
Error

(Rock, Pop Rock) Максим Леонидов - Над (2018) [FLAC (Image+.CUE), Lossless]

Статистика раздачи
Размер:  311 MB   |    Зарегистрирован:  9 месяцев   |    Скачан:  5 раз

Полного источника не было: 3 дня

Сидов:  0  |  0 KB/s  ]   Личеров:  0  |  0 KB/s  ]

* - сиды/пиры с внешних источников

   
 
Автор Сообщение

Бишеп Пол:Муж

03-Янв-2022 16:05

Максим Леонидов - Над

Жанр: Rock, Pop Rock
Год выпуска: 2018
Носитель: CD
Производитель диска: Soyuz Music - SZCD 1967-18
Аудиокодек: FLAC
Тип рипа: Image+.CUE
Битрейт аудио: lossless
Продолжительность: 00:41:39


Треклист:
01. Снегопад
02. Губами из воздуха
03. Ангел, змея и крест
04. 7 утра
05. Синий цвет
06. Отшельник
07. Простите меня
08. Питерские коты
09. Встречный ветер
10. Цвет её глаз
11. Ловец
12. Он ушёл на восток

Exact Audio Copy V1.3 from 2. September 2016 

Отчёт EAC об извлечении, выполненном 27. апреля 2021, 19:58

Максим Леонидов / Над

Дисковод: ATAPI DVD A DH16A6S Adapter: 1 ID: 0

Режим чтения : Достоверность
Использование точного потока : Да
Отключение кэша аудио : Да
Использование указателей C2 : Нет

Коррекция смещения при чтении : 6
Способность читать области Lead-in и Lead-out : Нет
Заполнение пропущенных сэмплов тишиной : Да
Удаление блоков с тишиной в начале и конце : Нет
При вычислениях CRC использовались нулевые сэмплы : Да
Интерфейс : Встроенный Win32-интерфейс для Win NT/2000

Выходной формат : Пользовательский кодировщик
Выбранный битрейт : 768 kBit/s
Качество : Высокий
Добавление ID3-тега : Нет
Утилита сжатия : C:\Program Files\Exact Audio Copy\FLAC\FLAC.EXE
Дополнительные параметры : -V -8 -T "Date=%year%" -T "Genre=%genre%" %source%

TOC извлечённого CD

Трек | Старт | Длительность | Начальный сектор | Конечный сектор
---------------------------------------------------------------------
1 | 0:00.00 | 3:03.57 | 0 | 13781
2 | 3:03.57 | 3:51.74 | 13782 | 31180
3 | 6:55.56 | 2:59.68 | 31181 | 44673
4 | 9:55.49 | 3:32.33 | 44674 | 60606
5 | 13:28.07 | 4:01.14 | 60607 | 78695
6 | 17:29.21 | 3:41.74 | 78696 | 95344
7 | 21:11.20 | 3:20.36 | 95345 | 110380
8 | 24:31.56 | 3:50.20 | 110381 | 127650
9 | 28:22.01 | 3:23.34 | 127651 | 142909
10 | 31:45.35 | 4:19.34 | 142910 | 162368
11 | 36:04.69 | 3:04.30 | 162369 | 176198
12 | 39:09.24 | 2:29.38 | 176199 | 187411

Характеристики диапазона извлечения и сообщения об ошибках

Выбранный диапазон

Имя файла D:\Музыка\2018. Максим Леонидов - Над\Максим Леонидов - Над.wav

Пиковый уровень 96.5 %
Скорость извлечения 5.6 X
Качество диапазона 100.0 %
CRC теста 36E07D10
CRC копии 36E07D10
Копирование... OK

Ошибок не произошло

AccurateRip: сводка
Трек 1 : извлечено точно (доверие 3) [AB11F03F] (AR v2)
Трек 2 : извлечено точно (доверие 3) [474FAD36] (AR v2)
Трек 3 : извлечено точно (доверие 3) [424017F1] (AR v2)
Трек 4 : извлечено точно (доверие 3) [FEF2AB06] (AR v2)
Трек 5 : извлечено точно (доверие 3) [06179AD5] (AR v2)
Трек 6 : извлечено точно (доверие 3) [A454367D] (AR v2)
Трек 7 : извлечено точно (доверие 3) [5CDE179F] (AR v2)
Трек 8 : извлечено точно (доверие 3) [1BD81D44] (AR v2)
Трек 9 : извлечено точно (доверие 3) [EED34C16] (AR v2)
Трек 10 : извлечено точно (доверие 3) [E90C55A9] (AR v2)
Трек 11 : извлечено точно (доверие 3) [ACDC2AD3] (AR v2)
Трек 12 : извлечено точно (доверие 3) [F624617E] (AR v2)
Все треки извлечены точно

Конец отчёта

---- CUETools DB Plugin V2.1.6

[CTDB TOCID: 0OK59yO.dbBzVcoQ1WBm3PUV_Io-] found
Submit result: 0OK59yO.dbBzVcoQ1WBm3PUV_Io- has been confirmed
Track | CTDB Status
1 | (4/4) Accurately ripped
2 | (4/4) Accurately ripped
3 | (4/4) Accurately ripped
4 | (4/4) Accurately ripped
5 | (4/4) Accurately ripped
6 | (4/4) Accurately ripped
7 | (4/4) Accurately ripped
8 | (4/4) Accurately ripped
9 | (4/4) Accurately ripped
10 | (4/4) Accurately ripped
11 | (4/4) Accurately ripped
12 | (4/4) Accurately ripped

==== Контрольная сумма отчёта 0125BE6B89CCC60BA1CEB3298FF7FD338E115BA89A5D547EC573C28B549EF103 ====
REM GENRE Rock 
REM DATE 2018
REM DISCID 9409C20C
REM COMMENT "ExactAudioCopy v1.3"
PERFORMER "Максим Леонидов"
TITLE "Над"
REM COMPOSER ""
FILE "Максим Леонидов - Над.flac" WAVE
TRACK 01 AUDIO
TITLE "Снегопад"
PERFORMER "Максим Леонидов"
REM COMPOSER ""
INDEX 01 00:00:00
TRACK 02 AUDIO
TITLE "Губами из воздуха"
PERFORMER "Максим Леонидов"
REM COMPOSER ""
INDEX 01 03:03:57
TRACK 03 AUDIO
TITLE "Ангел, змея и крест"
PERFORMER "Максим Леонидов"
REM COMPOSER ""
INDEX 01 06:55:56
TRACK 04 AUDIO
TITLE "7 утра"
PERFORMER "Максим Леонидов"
REM COMPOSER ""
INDEX 01 09:55:49
TRACK 05 AUDIO
TITLE "Синий цвет"
PERFORMER "Максим Леонидов"
REM COMPOSER ""
INDEX 01 13:28:07
TRACK 06 AUDIO
TITLE "Отшельник"
PERFORMER "Максим Леонидов"
REM COMPOSER ""
INDEX 01 17:29:21
TRACK 07 AUDIO
TITLE "Простите меня"
PERFORMER "Максим Леонидов"
REM COMPOSER ""
INDEX 01 21:11:20
TRACK 08 AUDIO
TITLE "Питерские коты"
PERFORMER "Максим Леонидов"
REM COMPOSER ""
INDEX 01 24:31:56
TRACK 09 AUDIO
TITLE "Встречный ветер"
PERFORMER "Максим Леонидов"
REM COMPOSER ""
INDEX 01 28:22:01
TRACK 10 AUDIO
TITLE "Цвет её глаз"
PERFORMER "Максим Леонидов"
REM COMPOSER ""
INDEX 01 31:45:35
TRACK 11 AUDIO
TITLE "Ловец"
PERFORMER "Максим Леонидов"
REM COMPOSER ""
INDEX 01 36:04:69
TRACK 12 AUDIO
TITLE "Он ушёл на восток"
PERFORMER "Максим Леонидов"
REM COMPOSER ""
INDEX 01 39:09:24

Этот торрент недоступен для скачивания без регистрации, однако доступен по публичной magnet-ссылке (источники с публичных трекеров). Перед использованием ссылки прочтите, пожалуйста Пользовательское соглашение, а также как можно дольше оставайтесь на раздаче! Для того, чтобы скачать сам торрент-файл (который видит больше источников), а также для того, чтобы поблагодарить релизера, вам необходимо зарегистрироваться. Если регистрироваться лень - вы можете также попробовать скачать релиз по нашим партнерским ссылкам ниже. Кроме того, зарегистрированным пользователям не показывается всплывающая реклама при скачивании.

[underver.se].t232104.torrent
Трекер: Зарегистрирован   [ 03.01.2022 16:05 ]  
Статус: проверено (by Бишеп at 03.01.2022 16:05)
Поблагодарили: 1 человек
Тип торрента: публичный - доступные источники с открытых трекеров: 
Размер: 311 MB (занимает 0.07 DVDR, для записи нужно 1 болванка DVDR/RW)
 
 

Яндекс.Метрика powered by Sphinx


В Н И М А Н И Е
Сайт не распространяет и не хранит электронные версии произведений, а лишь бесплатно и без коммерческой выгоды (не требуя взамен платы,
SMS и т.д.) предоставляет доступ к создаваемому пользователями каталогу ссылок на торрент-файлы, которые содержат только списки хеш-сумм.
Убедительная просьба с жалобами обращаться напрямую к пользователю, разместившему торрент файл.

Вверх