Loading...
Error

(Avant-garde Metal, Swing Revival, Progressive Metal) Diablo Swing Orchestra - Swagger & Stroll Down the Rabbit Hole (2021) [FLAC (Image+.CUE), Lossless]

Статистика раздачи
Размер:  600 MB   |    Зарегистрирован:  8 месяцев   |    Скачан:  1 раз

Полного источника не было: 16 дней

Сидов:  0  |  0 KB/s  ]   Личеров:  0  |  0 KB/s  ]

* - сиды/пиры с внешних источников

   
 
Автор Сообщение

Бишеп Пол:Муж

03-Янв-2022 17:34

Diablo Swing Orchestra - Swagger & Stroll Down the Rabbit Hole

Жанр: Avant-garde Metal, Swing Revival, Progressive Metal
Год выпуска: 2021
Носитель: CD
Производитель диска: Candlelight Records - 2438428991, Spinefarm Records - NA
Аудиокодек: FLAC
Тип рипа: Image+.CUE
Битрейт аудио: lossless
Продолжительность: 01:00:51


Треклист:
01. Sightseeing in the Apocalypse (02:14)
02. War Painted Valentine (04:01)
03. Celebremos lo Inevitable (04:54)
04. Speed Dating an Arsonist (05:30)
05. Jig of the Century (04:32)
06. The Sound of an Unconditional Surrender (05:31)
07. Malign Monologues (05:00)
08. Out Came the Hummingbirds (04:21)
09. Snake Oil Baptism (04:40)
10. Les Invulnérables (06:02)
11. Saluting the Reckoning (04:52)
12. The Prima Donna Gauntlet (05:05)
13. Overture to a Ceasefire (04:05)

Exact Audio Copy V1.1 from 23. June 2015 

EAC extraction logfile from 4. December 2021, 0:32

Diablo Swing Orchestra / Swagger & Stroll Down the Rabbit Hole

Used drive : MATSHITADVD+-RW SW830 Adapter: 1 ID: 0

Read mode : Secure
Utilize accurate stream : Yes
Defeat audio cache : Yes
Make use of C2 pointers : No

Read offset correction : 6
Overread into Lead-In and Lead-Out : No
Fill up missing offset samples with silence : Yes
Delete leading and trailing silent blocks : No
Null samples used in CRC calculations : Yes
Used interface : Native Win32 interface for Win NT & 2000

Used output format : User Defined Encoder
Selected bitrate : 768 kBit/s
Quality : High
Add ID3 tag : No
Command line compressor : C:\Program Files (x86)\Exact Audio Copy\FLAC\FLAC.EXE
Additional command line options : -6 -V -T "ARTIST=%artist%" -T "TITLE=%title%" -T "ALBUM=%albumtitle%" -T "DATE=%year%" -T "TRACKNUMBER=%tracknr%" -T "GENRE=%genre%" -T "COMMENT=%comment%" -T "BAND=%albuminterpret%" -T "ALBUMARTIST=%albuminterpret%" -T "COMPOSER=%composer%" %haslyrics%--tag-from-file=LYRICS="%lyricsfile%"%haslyrics% -T "DISCNUMBER=%cdnumber%" -T "TOTALDISCS=%totalcds%" -T "TOTALTRACKS=%numtracks%" %hascover%--picture="%coverfile%"%hascover% %source% -o %dest%

TOC of the extracted CD

Track | Start | Length | Start sector | End sector
---------------------------------------------------------
1 | 0:00.00 | 2:14.21 | 0 | 10070
2 | 2:14.21 | 4:01.04 | 10071 | 28149
3 | 6:15.25 | 4:54.03 | 28150 | 50202
4 | 11:09.28 | 5:30.67 | 50203 | 75019
5 | 16:40.20 | 4:32.07 | 75020 | 95426
6 | 21:12.27 | 5:31.25 | 95427 | 120276
7 | 26:43.52 | 5:00.10 | 120277 | 142786
8 | 31:43.62 | 4:21.50 | 142787 | 162411
9 | 36:05.37 | 4:40.61 | 162412 | 183472
10 | 40:46.23 | 6:02.04 | 183473 | 210626
11 | 46:48.27 | 4:52.13 | 210627 | 232539
12 | 51:40.40 | 5:05.10 | 232540 | 255424
13 | 56:45.50 | 4:05.18 | 255425 | 273817

Range status and errors

Selected range

Filename C:\Users\Boris\Desktop\lossless-galaxy.ru\DblSwnOrch21\Diablo Swing Orchestra - Swagger & Stroll Down the Rabbit Hole.wav

Peak level 96.6 %
Extraction speed 3.0 X
Range quality 100.0 %
Test CRC D69B4BDE
Copy CRC D69B4BDE
Copy OK

No errors occurred

AccurateRip summary
Track 1 not present in database
Track 2 not present in database
Track 3 not present in database
Track 4 not present in database
Track 5 not present in database
Track 6 not present in database
Track 7 not present in database
Track 8 not present in database
Track 9 not present in database
Track 10 not present in database
Track 11 not present in database
Track 12 not present in database
Track 13 not present in database
None of the tracks are present in the AccurateRip database

End of status report

---- CUETools DB Plugin V2.1.6

[CTDB TOCID: 13hyOkF6olUzbMsjdudBgc97hX4-] found
Submit result: 13hyOkF6olUzbMsjdudBgc97hX4- has been submitted
Track | CTDB Status
1 | (21/21) Accurately ripped
2 | (21/21) Accurately ripped
3 | (21/21) Accurately ripped
4 | (21/21) Accurately ripped
5 | (21/21) Accurately ripped
6 | (21/21) Accurately ripped
7 | (21/21) Accurately ripped
8 | (21/21) Accurately ripped
9 | (21/21) Accurately ripped
10 | (21/21) Accurately ripped
11 | (21/21) Differs in 23 samples @04:52:12-04:52:13
12 | (21/21) Differs in 1081 samples @00:00:00
13 | (21/21) Accurately ripped
If you are sure that your rip contains errors, you can use CUETools to repair it.

==== Log checksum 8B0338CD33FBF8BC03198C7E445B0871834993BEC869702AF1B4D9A7EEB099A0 ====
REM GENRE Metal 
REM DATE 2021
REM DISCID 980E420D
REM COMMENT "ExactAudioCopy v1.1"
PERFORMER "Diablo Swing Orchestra"
TITLE "Swagger & Stroll Down the Rabbit Hole"
FILE "Diablo Swing Orchestra - Swagger & Stroll Down the Rabbit Hole.flac" WAVE
TRACK 01 AUDIO
TITLE "Sightseeing in the Apocalypse"
PERFORMER "Diablo Swing Orchestra"
INDEX 01 00:00:00
TRACK 02 AUDIO
TITLE "War Painted Valentine"
PERFORMER "Diablo Swing Orchestra"
INDEX 01 02:14:21
TRACK 03 AUDIO
TITLE "Celebremos lo Inevitable"
PERFORMER "Diablo Swing Orchestra"
INDEX 01 06:15:25
TRACK 04 AUDIO
TITLE "Speed Dating an Arsonist"
PERFORMER "Diablo Swing Orchestra"
INDEX 01 11:09:28
TRACK 05 AUDIO
TITLE "Jig of the Century"
PERFORMER "Diablo Swing Orchestra"
INDEX 01 16:40:20
TRACK 06 AUDIO
TITLE "The Sound of an Unconditional Surrender"
PERFORMER "Diablo Swing Orchestra"
INDEX 01 21:12:27
TRACK 07 AUDIO
TITLE "Malign Monologues"
PERFORMER "Diablo Swing Orchestra"
INDEX 01 26:43:52
TRACK 08 AUDIO
TITLE "Out Came the Hummingbirds"
PERFORMER "Diablo Swing Orchestra"
INDEX 01 31:43:62
TRACK 09 AUDIO
TITLE "Snake Oil Baptism"
PERFORMER "Diablo Swing Orchestra"
INDEX 01 36:05:37
TRACK 10 AUDIO
TITLE "Les Invulnérables"
PERFORMER "Diablo Swing Orchestra"
INDEX 01 40:46:23
TRACK 11 AUDIO
TITLE "Saluting the Reckoning"
PERFORMER "Diablo Swing Orchestra"
INDEX 01 46:48:27
TRACK 12 AUDIO
TITLE "The Prima Donna Gauntlet"
PERFORMER "Diablo Swing Orchestra"
INDEX 01 51:40:40
TRACK 13 AUDIO
TITLE "Overture to a Ceasefire"
PERFORMER "Diablo Swing Orchestra"
INDEX 01 56:45:50

Этот торрент недоступен для скачивания без регистрации, однако доступен по публичной magnet-ссылке (источники с публичных трекеров). Перед использованием ссылки прочтите, пожалуйста Пользовательское соглашение, а также как можно дольше оставайтесь на раздаче! Для того, чтобы скачать сам торрент-файл (который видит больше источников), а также для того, чтобы поблагодарить релизера, вам необходимо зарегистрироваться. Если регистрироваться лень - вы можете также попробовать скачать релиз по нашим партнерским ссылкам ниже. Кроме того, зарегистрированным пользователям не показывается всплывающая реклама при скачивании.

[underver.se].t232109.torrent
Трекер: Зарегистрирован   [ 03.01.2022 17:34 ]  
Статус: проверено (by Бишеп at 03.01.2022 17:34)
Поблагодарили: пока никто не поблагодарил...
Тип торрента: публичный - доступные источники с открытых трекеров: 
Размер: 600 MB (занимает 0.13 DVDR, для записи нужно 1 болванка DVDR/RW)
 
 

Яндекс.Метрика powered by Sphinx


В Н И М А Н И Е
Сайт не распространяет и не хранит электронные версии произведений, а лишь бесплатно и без коммерческой выгоды (не требуя взамен платы,
SMS и т.д.) предоставляет доступ к создаваемому пользователями каталогу ссылок на торрент-файлы, которые содержат только списки хеш-сумм.
Убедительная просьба с жалобами обращаться напрямую к пользователю, разместившему торрент файл.

Вверх