Loading...
Error

(Symphonic Power Metal, Gothic Metal) Epica - Omega Alive (2021) 2CD [FLAC (Image+.CUE), Lossless]

Статистика раздачи
Размер:  959 MB   |    Зарегистрирован:  9 месяцев   |    Скачан:  5 раз

Полного источника не было: 5 месяцев 28 дней

Сидов:  0  |  0 KB/s  ]   Личеров:  0  |  0 KB/s  ]

* - сиды/пиры с внешних источников

   
 
Автор Сообщение

Бишеп Пол:Муж

05-Янв-2022 12:06

Epica - Omega Alive

Жанр: Symphonic Power Metal, Gothic Metal
Год выпуска: 2021
Носитель: CD
Производитель диска: Nuclear Blast - 60694
Аудиокодек: FLAC
Тип рипа: Image+.CUE
Битрейт аудио: lossless
Продолжительность: 01:39:02

Треклист:
01. Alpha - Anteludium
02. Abyss Of Time - Countdown To Singularity
03. The Skeleton Key
04. Unchain Utopia
05. The Obsessive Devotion
06. In All Conscience
07. Victims Of Contingency
08. Kingdom Of Heaven, Part 1 - A New Age Dawns Part V

Exact Audio Copy V1.3 from 2. September 2016 

EAC extraction logfile from 12. December 2021, 20:11

EPICA / Omega Alive - CD1

Used drive : ASUS DRW-24D5MT Adapter: 1 ID: 0

Read mode : Secure
Utilize accurate stream : Yes
Defeat audio cache : Yes
Make use of C2 pointers : No

Read offset correction : 6
Overread into Lead-In and Lead-Out : No
Fill up missing offset samples with silence : Yes
Delete leading and trailing silent blocks : No
Null samples used in CRC calculations : Yes
Used interface : Native Win32 interface for Win NT & 2000

Used output format : User Defined Encoder
Selected bitrate : 768 kBit/s
Quality : High
Add ID3 tag : No
Command line compressor : C:\Program Files (x86)\Exact Audio Copy\FLAC\FLAC.EXE
Additional command line options : -6 -V -T "ARTIST=%artist%" -T "TITLE=%title%" -T "ALBUM=%albumtitle%" -T "DATE=%year%" -T "TRACKNUMBER=%tracknr%" -T "GENRE=%genre%" -T "COMMENT=%comment%" -T "BAND=%albuminterpret%" -T "ALBUMARTIST=%albuminterpret%" -T "COMPOSER=%composer%" %haslyrics%--tag-from-file=LYRICS="%lyricsfile%"%haslyrics% -T "DISCNUMBER=%cdnumber%" -T "TOTALDISCS=%totalcds%" -T "TOTALTRACKS=%numtracks%" %hascover%--picture="%coverfile%"%hascover% %source% -o %dest%

TOC of the extracted CD

Track | Start | Length | Start sector | End sector
---------------------------------------------------------
1 | 0:00.00 | 1:38.16 | 0 | 7365
2 | 1:38.16 | 5:20.23 | 7366 | 31388
3 | 6:58.39 | 5:05.46 | 31389 | 54309
4 | 12:04.10 | 4:47.43 | 54310 | 75877
5 | 16:51.53 | 7:17.08 | 75878 | 108660
6 | 24:08.61 | 5:07.36 | 108661 | 131721
7 | 29:16.22 | 3:32.28 | 131722 | 147649
8 | 32:48.50 | 13:31.47 | 147650 | 208521

Range status and errors

Selected range

Filename E:\Música\EAC\Epica\EPICA - Omega Alive - CD1.wav

Peak level 100.0 %
Extraction speed 1.6 X
Range quality 100.0 %
Test CRC 91927502
Copy CRC 91927502
Copy OK

No errors occurred

AccurateRip summary
Track 1 not present in database
Track 2 not present in database
Track 3 not present in database
Track 4 not present in database
Track 5 not present in database
Track 6 not present in database
Track 7 not present in database
Track 8 not present in database
None of the tracks are present in the AccurateRip database

End of status report

---- CUETools DB Plugin V2.1.6

[CTDB TOCID: 0fRSW3GL3lGTPvNYSoUADezdK8Q-] found
Submit result: already submitted
Track | CTDB Status
1 | (22/22) Accurately ripped
2 | (22/22) Accurately ripped
3 | (22/22) Accurately ripped
4 | (22/22) Accurately ripped
5 | (22/22) Accurately ripped
6 | (22/22) Accurately ripped
7 | (22/22) Accurately ripped
8 | (22/22) Accurately ripped

==== Log checksum 538869DB7F70E1819E61184D6E329EF0B488D76D2D6CA65152F151B1F26230A8 ====
REM GENRE "Symphonic Metal" 
REM DATE 2021
REM DISCID 4D0ADC08
REM COMMENT "ExactAudioCopy v1.3"
PERFORMER "EPICA"
TITLE "Omega Alive - CD1"
REM COMPOSER ""
FILE "EPICA - Omega Alive - CD1.flac" WAVE
TRACK 01 AUDIO
TITLE "Alpha - Anteludium -"
PERFORMER "EPICA"
REM COMPOSER ""
INDEX 01 00:00:00
TRACK 02 AUDIO
TITLE "Abyss of Time - Countdown to Singularity -"
PERFORMER "EPICA"
REM COMPOSER ""
INDEX 01 01:38:16
TRACK 03 AUDIO
TITLE "The Skeleton Key"
PERFORMER "EPICA"
REM COMPOSER ""
INDEX 01 06:58:39
TRACK 04 AUDIO
TITLE "Unchain Utopia"
PERFORMER "EPICA"
REM COMPOSER ""
INDEX 01 12:04:10
TRACK 05 AUDIO
TITLE "The Obsessive Devotion"
PERFORMER "EPICA"
REM COMPOSER ""
INDEX 01 16:51:53
TRACK 06 AUDIO
TITLE "In All Conscience"
PERFORMER "EPICA"
REM COMPOSER ""
INDEX 01 24:08:61
TRACK 07 AUDIO
TITLE "Victims of Contingency"
PERFORMER "EPICA"
REM COMPOSER ""
INDEX 01 29:16:22
TRACK 08 AUDIO
TITLE "Kingdom of Heaven : A New Age Dawns, Part V"
PERFORMER "EPICA"
REM COMPOSER ""
INDEX 01 32:48:50
Треклист:
01. Kingdom Of Heaven, Part 3 - The Antediluvian Universe
02. Rivers - A Capella
03. Once Upon A Nightmare
04. Freedom - The Wolves Within
05. Cry For The Moon - The Embrace That Smothers Part IV
06. Beyond The Matrix
07. Omega - Soreveign Of The Sun Spheres

Exact Audio Copy V1.3 from 2. September 2016 

EAC extraction logfile from 12. December 2021, 20:52

EPICA / Omega Alive- CD2

Used drive : ASUS DRW-24D5MT Adapter: 1 ID: 0

Read mode : Secure
Utilize accurate stream : Yes
Defeat audio cache : Yes
Make use of C2 pointers : No

Read offset correction : 6
Overread into Lead-In and Lead-Out : No
Fill up missing offset samples with silence : Yes
Delete leading and trailing silent blocks : No
Null samples used in CRC calculations : Yes
Used interface : Native Win32 interface for Win NT & 2000

Used output format : User Defined Encoder
Selected bitrate : 768 kBit/s
Quality : High
Add ID3 tag : No
Command line compressor : C:\Program Files (x86)\Exact Audio Copy\FLAC\FLAC.EXE
Additional command line options : -6 -V -T "ARTIST=%artist%" -T "TITLE=%title%" -T "ALBUM=%albumtitle%" -T "DATE=%year%" -T "TRACKNUMBER=%tracknr%" -T "GENRE=%genre%" -T "COMMENT=%comment%" -T "BAND=%albuminterpret%" -T "ALBUMARTIST=%albuminterpret%" -T "COMPOSER=%composer%" %haslyrics%--tag-from-file=LYRICS="%lyricsfile%"%haslyrics% -T "DISCNUMBER=%cdnumber%" -T "TOTALDISCS=%totalcds%" -T "TOTALTRACKS=%numtracks%" %hascover%--picture="%coverfile%"%hascover% %source% -o %dest%

TOC of the extracted CD

Track | Start | Length | Start sector | End sector
---------------------------------------------------------
1 | 0:00.00 | 13:23.24 | 0 | 60248
2 | 13:23.24 | 4:32.54 | 60249 | 80702
3 | 17:56.03 | 7:11.05 | 80703 | 113032
4 | 25:07.08 | 5:36.29 | 113033 | 138261
5 | 30:43.37 | 8:31.39 | 138262 | 176625
6 | 39:15.01 | 6:26.49 | 176626 | 205624
7 | 45:41.50 | 7:00.57 | 205625 | 237181

Range status and errors

Selected range

Filename E:\Música\EAC\Epica\EPICA - Omega Alive- CD2.wav

Peak level 100.0 %
Extraction speed 1.7 X
Range quality 100.0 %
Test CRC 793D9A94
Copy CRC 793D9A94
Copy OK

No errors occurred

AccurateRip summary
Track 1 not present in database
Track 2 not present in database
Track 3 not present in database
Track 4 not present in database
Track 5 not present in database
Track 6 not present in database
Track 7 not present in database
None of the tracks are present in the AccurateRip database

End of status report

---- CUETools DB Plugin V2.1.6

[CTDB TOCID: TxiHwJSQUW5d45LG6aazwOsLP90-] found
Submit result: already submitted
Track | CTDB Status
1 | (22/22) Accurately ripped
2 | (22/22) Accurately ripped
3 | (22/22) Accurately ripped
4 | (22/22) Accurately ripped
5 | (22/22) Accurately ripped
6 | (22/22) Accurately ripped
7 | (22/22) Accurately ripped

==== Log checksum D1B24DF5A2E3EF14C01BC4625751A92F6D6C06EB8E05FB3D94D93355B1F1A984 ====
REM GENRE "Symphonic Metal" 
REM DATE 2021
REM DISCID 610C5A07
REM COMMENT "ExactAudioCopy v1.3"
PERFORMER "EPICA"
TITLE "Omega Alive- CD2"
REM COMPOSER ""
FILE "EPICA - Omega Alive- CD2.flac" WAVE
TRACK 01 AUDIO
TITLE "Kingdom of Heaven ~ Part III - The Antediluvian Universe -"
PERFORMER "EPICA"
REM COMPOSER ""
INDEX 01 00:00:00
TRACK 02 AUDIO
TITLE "Rivers (Acapella)"
PERFORMER "EPICA"
REM COMPOSER ""
INDEX 01 13:23:24
TRACK 03 AUDIO
TITLE "Once Upon a Nightmare"
PERFORMER "EPICA"
REM COMPOSER ""
INDEX 01 17:56:03
TRACK 04 AUDIO
TITLE "Freedom - The Wolves Within -"
PERFORMER "EPICA"
REM COMPOSER ""
INDEX 01 25:07:08
TRACK 05 AUDIO
TITLE "Cry for the Moon : The Embrace that Smothers, Part IV"
PERFORMER "EPICA"
REM COMPOSER ""
INDEX 01 30:43:37
TRACK 06 AUDIO
TITLE "Beyond the Matrix"
PERFORMER "EPICA"
REM COMPOSER ""
INDEX 01 39:15:01
TRACK 07 AUDIO
TITLE "Omega - Sovereign of the Sun Spheres -"
PERFORMER "EPICA"
REM COMPOSER ""
INDEX 01 45:41:50

Этот торрент недоступен для скачивания без регистрации, однако доступен по публичной magnet-ссылке (источники с публичных трекеров). Перед использованием ссылки прочтите, пожалуйста Пользовательское соглашение, а также как можно дольше оставайтесь на раздаче! Для того, чтобы скачать сам торрент-файл (который видит больше источников), а также для того, чтобы поблагодарить релизера, вам необходимо зарегистрироваться. Если регистрироваться лень - вы можете также попробовать скачать релиз по нашим партнерским ссылкам ниже. Кроме того, зарегистрированным пользователям не показывается всплывающая реклама при скачивании.

[underver.se].t232306.torrent
Трекер: Зарегистрирован   [ 05.01.2022 12:06 ]  
Статус: проверено (by Бишеп at 05.01.2022 12:06)
Поблагодарили: пока никто не поблагодарил...
Тип торрента: публичный - доступные источники с открытых трекеров: 
Размер: 959 MB (занимает 0.21 DVDR, для записи нужно 1 болванка DVDR/RW)
 
 

Яндекс.Метрика powered by Sphinx


В Н И М А Н И Е
Сайт не распространяет и не хранит электронные версии произведений, а лишь бесплатно и без коммерческой выгоды (не требуя взамен платы,
SMS и т.д.) предоставляет доступ к создаваемому пользователями каталогу ссылок на торрент-файлы, которые содержат только списки хеш-сумм.
Убедительная просьба с жалобами обращаться напрямую к пользователю, разместившему торрент файл.

Вверх