Loading...
Error

(Heavy Metal) Supreme Unbeing - Enter Reality (2020) [FLAC (Image+.CUE), Lossless]

Статистика раздачи
Размер:  370 MB   |    Зарегистрирован:  8 месяцев   |    Скачан:  2 раза

Полного источника не было: 7 месяцев

Сидов:  0  |  0 KB/s  ]   Личеров:  0  |  0 KB/s  ]

* - сиды/пиры с внешних источников

   
 
Автор Сообщение

Бишеп Пол:Муж

07-Янв-2022 07:34

Supreme Unbeing - Enter Reality

Жанр: Heavy Metal
Год выпуска: 2020
Носитель: CD
Производитель диска: EMP Label Group - none
Аудиокодек: FLAC
Тип рипа: Image+.CUE
Битрейт аудио: lossless
Продолжительность: 00:51:11


Треклист:
01. Enter Reality
02. You'll Never Make It
03. Animals
04. Do It Again
05. The Sinner
06. Solution
07. I Can't Help You
08. Become
09. The Liar
10. Dreaming
11. Angel Of The Dark

Exact Audio Copy V1.3 from 2. September 2016 

Отчёт EAC об извлечении, выполненном 10. ноября 2021, 22:10

Supreme Unbeing / Enter Reality

Дисковод: ASUS DRW-20B1LT Adapter: 5 ID: 0

Режим чтения : Достоверность
Использование точного потока : Да
Отключение кэша аудио : Да
Использование указателей C2 : Нет

Коррекция смещения при чтении : 6
Способность читать области Lead-in и Lead-out : Нет
Заполнение пропущенных сэмплов тишиной : Да
Удаление блоков с тишиной в начале и конце : Нет
При вычислениях CRC использовались нулевые сэмплы : Да
Интерфейс : Установленный внешний ASPI-интерфейс

Выходной формат : Внутренние WAV-операции
Формат сэмплов : 44.100 Гц; 16 бит; стерео

TOC извлечённого CD

Трек | Старт | Длительность | Начальный сектор | Конечный сектор
---------------------------------------------------------------------
1 | 0:00.00 | 1:41.63 | 0 | 7637
2 | 1:41.63 | 4:32.05 | 7638 | 28042
3 | 6:13.68 | 5:11.58 | 28043 | 51425
4 | 11:25.51 | 3:59.59 | 51426 | 69409
5 | 15:25.35 | 4:01.07 | 69410 | 87491
6 | 19:26.42 | 5:23.02 | 87492 | 111718
7 | 24:49.44 | 4:52.38 | 111719 | 133656
8 | 29:42.07 | 6:05.37 | 133657 | 161068
9 | 35:47.44 | 3:26.10 | 161069 | 176528
10 | 39:13.54 | 5:01.35 | 176529 | 199138
11 | 44:15.14 | 6:56.13 | 199139 | 230351

Характеристики диапазона извлечения и сообщения об ошибках

Выбранный диапазон

Имя файла D:\Музыка (Lossless)\Supreme Unbeing - Enter Reality (2020)\Supreme Unbeing - Enter Reality.wav

Пиковый уровень 98.8 %
Скорость извлечения 5.7 X
Качество диапазона 99.9 %
CRC теста C5BD73A7
CRC копии C5BD73A7
Копирование... OK

Ошибок не произошло

Конец отчёта

---- CUETools DB Plugin V2.1.6

[CTDB TOCID: Hpj15d5NnJef0im6lB5kvGmdXK4-] found
Submit result: Hpj15d5NnJef0im6lB5kvGmdXK4- has been confirmed
Track | CTDB Status
1 | (1/1) Accurately ripped
2 | (1/1) Accurately ripped
3 | (1/1) Accurately ripped
4 | (1/1) Accurately ripped
5 | (1/1) Accurately ripped
6 | (1/1) Accurately ripped
7 | (1/1) Accurately ripped
8 | (1/1) Accurately ripped
9 | (1/1) Accurately ripped
10 | (1/1) Accurately ripped
11 | (1/1) Accurately ripped

==== Контрольная сумма отчёта 97C2301D1F3EA460E51024026C0579927A088CBFA28C0D932AB26C65BFFB7118 ====
REM GENRE "Heavy Metal" 
REM DATE 2020
REM DISCID A20BFF0B
REM COMMENT "ExactAudioCopy v1.3"
PERFORMER "Supreme Unbeing"
TITLE "Enter Reality"
REM COMPOSER ""
FILE "Supreme Unbeing - Enter Reality.flac" WAVE
TRACK 01 AUDIO
TITLE "Enter Reality (Instrumental)"
PERFORMER "Supreme Unbeing"
REM COMPOSER ""
INDEX 01 00:00:00
TRACK 02 AUDIO
TITLE "You'll Never Make It"
PERFORMER "Supreme Unbeing"
REM COMPOSER ""
INDEX 01 01:41:63
TRACK 03 AUDIO
TITLE "Animals"
PERFORMER "Supreme Unbeing"
REM COMPOSER ""
INDEX 01 06:13:68
TRACK 04 AUDIO
TITLE "Do It Again"
PERFORMER "Supreme Unbeing"
REM COMPOSER ""
INDEX 01 11:25:51
TRACK 05 AUDIO
TITLE "The Sinner"
PERFORMER "Supreme Unbeing"
REM COMPOSER ""
INDEX 01 15:25:35
TRACK 06 AUDIO
TITLE "Solution"
PERFORMER "Supreme Unbeing"
REM COMPOSER ""
INDEX 01 19:26:42
TRACK 07 AUDIO
TITLE "I Can't Help You"
PERFORMER "Supreme Unbeing"
REM COMPOSER ""
INDEX 01 24:49:44
TRACK 08 AUDIO
TITLE "Become"
PERFORMER "Supreme Unbeing"
REM COMPOSER ""
INDEX 01 29:42:07
TRACK 09 AUDIO
TITLE "The Liar"
PERFORMER "Supreme Unbeing"
REM COMPOSER ""
INDEX 01 35:47:44
TRACK 10 AUDIO
TITLE "Dreaming"
PERFORMER "Supreme Unbeing"
REM COMPOSER ""
INDEX 01 39:13:54
TRACK 11 AUDIO
TITLE "Angel Of The Dark"
PERFORMER "Supreme Unbeing"
REM COMPOSER ""
INDEX 01 44:15:14

Этот торрент недоступен для скачивания без регистрации, однако доступен по публичной magnet-ссылке (источники с публичных трекеров). Перед использованием ссылки прочтите, пожалуйста Пользовательское соглашение, а также как можно дольше оставайтесь на раздаче! Для того, чтобы скачать сам торрент-файл (который видит больше источников), а также для того, чтобы поблагодарить релизера, вам необходимо зарегистрироваться. Если регистрироваться лень - вы можете также попробовать скачать релиз по нашим партнерским ссылкам ниже. Кроме того, зарегистрированным пользователям не показывается всплывающая реклама при скачивании.

[underver.se].t232449.torrent
Трекер: Зарегистрирован   [ 07.01.2022 07:34 ]  
Статус: проверено (by Бишеп at 07.01.2022 07:34)
Поблагодарили: пока никто не поблагодарил...
Тип торрента: публичный - доступные источники с открытых трекеров: 
Размер: 370 MB (занимает 0.08 DVDR, для записи нужно 1 болванка DVDR/RW)
 
 

Яндекс.Метрика powered by Sphinx


В Н И М А Н И Е
Сайт не распространяет и не хранит электронные версии произведений, а лишь бесплатно и без коммерческой выгоды (не требуя взамен платы,
SMS и т.д.) предоставляет доступ к создаваемому пользователями каталогу ссылок на торрент-файлы, которые содержат только списки хеш-сумм.
Убедительная просьба с жалобами обращаться напрямую к пользователю, разместившему торрент файл.

Вверх