Loading...
Error

(Heavy Metal, Power Metal) Cryonic Temple - Blood, Guts & Glory (2003) [FLAC (Image+.CUE), Lossless]

Статистика раздачи
Размер:  475 MB   |    Зарегистрирован:  8 месяцев   |    Скачан:  2 раза

Полного источника не было: 7 месяцев

Сидов:  0  |  0 KB/s  ]   Личеров:  0  |  0 KB/s  ]

* - сиды/пиры с внешних источников

   
 
Автор Сообщение

Бишеп Пол:Муж

12-Янв-2022 04:36

Cryonic Temple - Blood, Guts & Glory

Жанр: Heavy Metal, Power Metal
Год выпуска: 2003
Носитель: CD
Производитель диска: LMP - LMP 0310-063 DP
Аудиокодек: FLAC
Тип рипа: Image+.CUE
Битрейт аудио: lossless
Продолжительность: 00:51:14


Треклист:
01. Morphine Dreams
02. Mercenaries Of Metal - The Quest Pt. I
03. Inquisition - The Quest Pt. II
04. Swords And Diamonds
05. Thunder And Lightning
06. The Story Of The Sword
07. Long Live The Warriors
08. Triumph Of Steel
09. The Midas Touch (Samurai) - The Quest Pt. III
10. Through The Skies
11. Metal No. 1 (Bonus Track)

Exact Audio Copy V1.3 from 2. September 2016 

EAC extraction logfile from 11. July 2017, 16:02

Cryonic Temple / Blood, Guts & Glory

Used drive : ATAPI iHAS122 W Adapter: 2 ID: 0

Read mode : Secure
Utilize accurate stream : Yes
Defeat audio cache : Yes
Make use of C2 pointers : No

Read offset correction : 48
Overread into Lead-In and Lead-Out : No
Fill up missing offset samples with silence : Yes
Delete leading and trailing silent blocks : No
Null samples used in CRC calculations : Yes
Used interface : Installed external ASPI interface

Used output format : User Defined Encoder
Selected bitrate : 1024 kBit/s
Quality : High
Add ID3 tag : No
Command line compressor : C:\Program Files\FLAC\flac.exe
Additional command line options : -V -8 -T "Date=%year%" -T "Genre=%genre%" -T"COMMENT=Ripped by Ilijan - ilko" -8 -V %source%

TOC of the extracted CD

Track | Start | Length | Start sector | End sector
---------------------------------------------------------
1 | 0:00.00 | 1:01.13 | 0 | 4587
2 | 1:01.13 | 6:11.08 | 4588 | 32420
3 | 7:12.21 | 4:33.10 | 32421 | 52905
4 | 11:45.31 | 4:23.67 | 52906 | 72697
5 | 16:09.23 | 3:33.52 | 72698 | 88724
6 | 19:43.00 | 5:33.03 | 88725 | 113702
7 | 25:16.03 | 5:34.33 | 113703 | 138785
8 | 30:50.36 | 4:53.10 | 138786 | 160770
9 | 35:43.46 | 6:06.05 | 160771 | 188225
10 | 41:49.51 | 4:30.68 | 188226 | 208543
11 | 46:20.44 | 4:53.31 | 208544 | 230549
12 | 53:46.00 | 11:43.49 | 241950 | 294723

Range status and errors

Selected range

Filename D:\ilko\Cryonic Temple - Blood, Guts & Glory.wav

Peak level 98.8 %
Extraction speed 3.9 X
Range quality 99.9 %
Test CRC BF1172AC
Copy CRC BF1172AC
Copy OK

No errors occurred

AccurateRip summary
Track 1 accurately ripped (confidence 2) [9887110F] (AR v2)
Track 2 accurately ripped (confidence 2) [12F253C4] (AR v2)
Track 3 accurately ripped (confidence 2) [BBEC273E] (AR v2)
Track 4 accurately ripped (confidence 2) [02CF01F3] (AR v2)
Track 5 accurately ripped (confidence 2) [B6D2792A] (AR v2)
Track 6 accurately ripped (confidence 2) [21B4FDC9] (AR v2)
Track 7 accurately ripped (confidence 2) [0D4C2194] (AR v2)
Track 8 accurately ripped (confidence 2) [2CB27444] (AR v2)
Track 9 accurately ripped (confidence 2) [01487A65] (AR v2)
Track 10 accurately ripped (confidence 2) [5C4C6A53] (AR v2)
Track 11 accurately ripped (confidence 2) [3AEEBB7F] (AR v2)
All tracks accurately ripped

End of status report

---- CUETools DB Plugin V2.1.6

[CTDB TOCID: 8f1sPVMZQa81GorUyIrRYc2l1tU-] found
Submit result: 8f1sPVMZQa81GorUyIrRYc2l1tU- has been confirmed
Track | CTDB Status
1 | (5/5) Accurately ripped
2 | (5/5) Accurately ripped
3 | (5/5) Accurately ripped
4 | (5/5) Accurately ripped
5 | (5/5) Accurately ripped
6 | (5/5) Accurately ripped
7 | (5/5) Accurately ripped
8 | (5/5) Accurately ripped
9 | (5/5) Accurately ripped
10 | (5/5) Accurately ripped
11 | (5/5) Accurately ripped

==== Log checksum 85E1D99DC6D589E6D45577F8C69428925BB48D50148ADE3F8ADA84500658208C ====
REM GENRE Metal 
REM DATE 2003
REM DISCID 9A0F590C
REM COMMENT "ExactAudioCopy v1.3"
PERFORMER "Cryonic Temple"
TITLE "Blood, Guts & Glory"
FILE "Cryonic Temple - Blood, Guts & Glory.flac" WAVE
TRACK 01 AUDIO
TITLE "Morphine Dreams"
PERFORMER "Cryonic Temple"
INDEX 01 00:00:00
TRACK 02 AUDIO
TITLE "Mercenaries Of Metal - The Quest Part 1"
PERFORMER "Cryonic Temple"
INDEX 01 01:01:13
TRACK 03 AUDIO
TITLE "Inquisition - The Quest Part 2"
PERFORMER "Cryonic Temple"
INDEX 00 07:11:60
INDEX 01 07:12:21
TRACK 04 AUDIO
TITLE "Swords And Diamonds"
PERFORMER "Cryonic Temple"
INDEX 00 11:44:67
INDEX 01 11:45:31
TRACK 05 AUDIO
TITLE "Thunder And Lightning"
PERFORMER "Cryonic Temple"
INDEX 00 16:08:51
INDEX 01 16:09:23
TRACK 06 AUDIO
TITLE "The Story Of The Sword"
PERFORMER "Cryonic Temple"
INDEX 00 19:42:56
INDEX 01 19:43:00
TRACK 07 AUDIO
TITLE "Long Live The Warriors"
PERFORMER "Cryonic Temple"
INDEX 00 25:15:32
INDEX 01 25:16:03
TRACK 08 AUDIO
TITLE "Triumph Of Steel"
PERFORMER "Cryonic Temple"
INDEX 00 30:49:68
INDEX 01 30:50:36
TRACK 09 AUDIO
TITLE "The Midas Touch (Samurai) - The Quest Part 3"
PERFORMER "Cryonic Temple"
INDEX 00 35:42:55
INDEX 01 35:43:46
TRACK 10 AUDIO
TITLE "Through The Skies"
PERFORMER "Cryonic Temple"
INDEX 00 41:49:22
INDEX 01 41:49:51
TRACK 11 AUDIO
TITLE "Metal No. 1 (Bonus Track)"
PERFORMER "Cryonic Temple"
INDEX 00 46:17:68
INDEX 01 46:20:44

Этот торрент недоступен для скачивания без регистрации, однако доступен по публичной magnet-ссылке (источники с публичных трекеров). Перед использованием ссылки прочтите, пожалуйста Пользовательское соглашение, а также как можно дольше оставайтесь на раздаче! Для того, чтобы скачать сам торрент-файл (который видит больше источников), а также для того, чтобы поблагодарить релизера, вам необходимо зарегистрироваться. Если регистрироваться лень - вы можете также попробовать скачать релиз по нашим партнерским ссылкам ниже. Кроме того, зарегистрированным пользователям не показывается всплывающая реклама при скачивании.

[underver.se].t232822.torrent
Трекер: Зарегистрирован   [ 12.01.2022 04:36 ]  
Статус: проверено (by Бишеп at 12.01.2022 04:37)
Поблагодарили: пока никто не поблагодарил...
Тип торрента: публичный - доступные источники с открытых трекеров: 
Размер: 475 MB (занимает 0.11 DVDR, для записи нужно 1 болванка DVDR/RW)
 
 

Яндекс.Метрика powered by Sphinx


В Н И М А Н И Е
Сайт не распространяет и не хранит электронные версии произведений, а лишь бесплатно и без коммерческой выгоды (не требуя взамен платы,
SMS и т.д.) предоставляет доступ к создаваемому пользователями каталогу ссылок на торрент-файлы, которые содержат только списки хеш-сумм.
Убедительная просьба с жалобами обращаться напрямую к пользователю, разместившему торрент файл.

Вверх