Loading...
Error

(Heavy Metal) Kryptos - Force Of Danger (2021) [FLAC (Image+.CUE), Lossless]

Статистика раздачи
Размер:  248 MB   |    Зарегистрирован:  8 месяцев   |    Скачан:  1 раз

Полного источника не было: 9 дней

Сидов:  0  |  0 KB/s  ]   Личеров:  0  |  0 KB/s  ]

* - сиды/пиры с внешних источников

   
 
Автор Сообщение

Бишеп Пол:Муж

12-Янв-2022 07:00

Kryptos - Force Of Danger

Жанр: Heavy Metal
Год выпуска: 2021
Носитель: CD
Производитель диска: Фоно - FO1665CD
Аудиокодек: FLAC
Тип рипа: Image+.CUE
Битрейт аудио: lossless
Продолжительность: 00:35:33


Треклист:
01. Raging Steel (03:50)
02. Hot Wired (03:03)
03. Dawnbreakers (04:14)
04. Thunderchild (04:25)
05. Nighthawk (04:13)
06. Omega Point (06:21)
07. Force of Danger (04:48)
08. Shadowmancer (04:40)

Exact Audio Copy V1.5 from 20. February 2020 

Отчёт EAC об извлечении, выполненном 9. января 2022, 19:58

Kryptos / Force of Danger

Дисковод: ASUS DRW-24D5MT Adapter: 1 ID: 0

Режим чтения : Достоверность
Использование точного потока : Да
Отключение кэша аудио : Да
Использование указателей C2 : Нет

Коррекция смещения при чтении : 6
Способность читать области Lead-in и Lead-out : Нет
Заполнение пропущенных сэмплов тишиной : Да
Удаление блоков с тишиной в начале и конце : Нет
При вычислениях CRC использовались нулевые сэмплы : Да
Интерфейс : Установленный внешний ASPI-интерфейс

Выходной формат : Пользовательский кодировщик
Выбранный битрейт : 128 kBit/s
Качество : Высокий
Добавление ID3-тега : Нет
Утилита сжатия : C:\Program Files (x86)\Exact Audio Copy\Flac\flac.exe
Дополнительные параметры : -V -8 -T "Date=%year%" -T "Genre=%genre%" %source%

TOC извлечённого CD

Трек | Старт | Длительность | Начальный сектор | Конечный сектор
---------------------------------------------------------------------
1 | 0:00.00 | 3:50.01 | 0 | 17250
2 | 3:50.01 | 3:01.57 | 17251 | 30882
3 | 6:51.58 | 4:13.60 | 30883 | 49917
4 | 11:05.43 | 4:26.30 | 49918 | 69897
5 | 15:31.73 | 4:12.04 | 69898 | 88801
6 | 19:44.02 | 6:20.02 | 88802 | 117303
7 | 26:04.04 | 4:47.39 | 117304 | 138867
8 | 30:51.43 | 4:41.41 | 138868 | 159983

Характеристики диапазона извлечения и сообщения об ошибках

Выбранный диапазон

Имя файла C:\Users\Денис\Desktop\отправить\Kryptos 2021 «Force Of Danger»\Kryptos - Force of Danger.wav

Пиковый уровень 89.1 %
Скорость извлечения 2.8 X
Качество диапазона 99.9 %
CRC теста FFA7D085
CRC копии FFA7D085
Копирование... OK

Ошибок не произошло

AccurateRip: сводка
Трек 1 отсутствует в базе данных
Трек 2 отсутствует в базе данных
Трек 3 отсутствует в базе данных
Трек 4 отсутствует в базе данных
Трек 5 отсутствует в базе данных
Трек 6 отсутствует в базе данных
Трек 7 отсутствует в базе данных
Трек 8 отсутствует в базе данных
Ни одного трека нет в базе AccurateRip

Конец отчёта

==== Контрольная сумма отчёта A32CE5C1D652E9664DF7950A348A24BBAC84D7926F2414E54B7CFBE0C789FAE7 ====
REM GENRE "Heavy Metal" 
REM DATE 2021
REM DISCID 66085508
REM COMMENT "ExactAudioCopy v1.5"
PERFORMER "Kryptos"
TITLE "Force of Danger"
REM COMPOSER ""
FILE "Kryptos - Force of Danger.flac" WAVE
TRACK 01 AUDIO
TITLE "Raging Steel"
PERFORMER "Kryptos"
REM COMPOSER ""
INDEX 01 00:00:00
TRACK 02 AUDIO
TITLE "Hot Wired"
PERFORMER "Kryptos"
REM COMPOSER ""
INDEX 00 03:48:20
INDEX 01 03:50:01
TRACK 03 AUDIO
TITLE "Dawnbreakers"
PERFORMER "Kryptos"
REM COMPOSER ""
INDEX 00 06:50:57
INDEX 01 06:51:58
TRACK 04 AUDIO
TITLE "Thunderchild"
PERFORMER "Kryptos"
REM COMPOSER ""
INDEX 00 11:03:62
INDEX 01 11:05:43
TRACK 05 AUDIO
TITLE "Nighthawk"
PERFORMER "Kryptos"
REM COMPOSER ""
INDEX 00 15:30:04
INDEX 01 15:31:73
TRACK 06 AUDIO
TITLE "Omega Point"
PERFORMER "Kryptos"
REM COMPOSER ""
INDEX 00 19:42:21
INDEX 01 19:44:02
TRACK 07 AUDIO
TITLE "Force of Danger"
PERFORMER "Kryptos"
REM COMPOSER ""
INDEX 00 26:02:18
INDEX 01 26:04:04
TRACK 08 AUDIO
TITLE "Shadowmancer"
PERFORMER "Kryptos"
REM COMPOSER ""
INDEX 00 30:49:62
INDEX 01 30:51:43

Этот торрент недоступен для скачивания без регистрации, однако доступен по публичной magnet-ссылке (источники с публичных трекеров). Перед использованием ссылки прочтите, пожалуйста Пользовательское соглашение, а также как можно дольше оставайтесь на раздаче! Для того, чтобы скачать сам торрент-файл (который видит больше источников), а также для того, чтобы поблагодарить релизера, вам необходимо зарегистрироваться. Если регистрироваться лень - вы можете также попробовать скачать релиз по нашим партнерским ссылкам ниже. Кроме того, зарегистрированным пользователям не показывается всплывающая реклама при скачивании.

[underver.se].t232828.torrent
Трекер: Зарегистрирован   [ 12.01.2022 07:00 ]  
Статус: проверено (by Бишеп at 12.01.2022 07:00)
Поблагодарили: пока никто не поблагодарил...
Тип торрента: публичный - доступные источники с открытых трекеров: 
Размер: 248 MB (занимает 0.06 DVDR, для записи нужно 1 болванка DVDR/RW)
 
 

Яндекс.Метрика powered by Sphinx


В Н И М А Н И Е
Сайт не распространяет и не хранит электронные версии произведений, а лишь бесплатно и без коммерческой выгоды (не требуя взамен платы,
SMS и т.д.) предоставляет доступ к создаваемому пользователями каталогу ссылок на торрент-файлы, которые содержат только списки хеш-сумм.
Убедительная просьба с жалобами обращаться напрямую к пользователю, разместившему торрент файл.

Вверх