Loading...
Error

(Rock) СерьГа - Своим чередом (2021) [FLAC (Image+.CUE), Lossless]

Статистика раздачи
Размер:  359 MB   |    Зарегистрирован:  8 месяцев   |    Скачан:  6 раз

Полного источника не было: 4 часа

Сидов:  0  |  0 KB/s  ]   Личеров:  0  |  0 KB/s  ]

* - сиды/пиры с внешних источников

   
 
Автор Сообщение

Бишеп Пол:Муж

17-Янв-2022 10:37

СерьГа - Своим чередом

Жанр: Rock
Год выпуска: 2021
Носитель: CD
Производитель диска: Soyuz Music - SZCD 3507-21
Аудиокодек: FLAC
Тип рипа: Image+.CUE
Битрейт аудио: lossless
Продолжительность: 00:45:48


Треклист:
01. Своим чередом - 03:49
02. Воскресенье (feat. Александр Маршал) - 03:27
03. Мишка-Мишутка - 04:21
04. Тебя не сломать (Осень) - 03:38
05. Это точно про меня - 02:57
06. Колокольный звон (feat. Эдмунд Шклярский) - 04:31
07. Прости - 05:02
08. Весёлая тема - 03:12
09. Не будь атеистом (feat. Александр Маршал) - 02:59
10. Третья мировая - 04:47
11. Песня про всё остальное - 03:23
12. Тебя не сломать (Весна) (feat. Юта) - 03:36

Exact Audio Copy V1.3 from 2. September 2016 

Отчёт EAC об извлечении, выполненном 15. января 2022, 16:16

Серьга / Своим чередом

Дисковод: PIONEER DVD-RW DVR-221L Adapter: 1 ID: 0

Режим чтения : Достоверность
Использование точного потока : Да
Отключение кэша аудио : Да
Использование указателей C2 : Нет

Коррекция смещения при чтении : 6
Способность читать области Lead-in и Lead-out : Нет
Заполнение пропущенных сэмплов тишиной : Да
Удаление блоков с тишиной в начале и конце : Нет
При вычислениях CRC использовались нулевые сэмплы : Да
Интерфейс : Встроенный Win32-интерфейс для Win NT/2000

Выходной формат : Пользовательский кодировщик
Выбранный битрейт : 768 kBit/s
Качество : Высокий
Добавление ID3-тега : Нет
Утилита сжатия : C:\Program Files (x86)\Exact Audio Copy\FLAC\FLAC.EXE
Дополнительные параметры : -6 -V -T "ARTIST=%artist%" -T "TITLE=%title%" -T "ALBUM=%albumtitle%" -T "DATE=%year%" -T "TRACKNUMBER=%tracknr%" -T "GENRE=%genre%" -T "COMMENT=%comment%" -T "BAND=%albuminterpret%" -T "ALBUMARTIST=%albuminterpret%" -T "COMPOSER=%composer%" %haslyrics%--tag-from-file=LYRICS="%lyricsfile%"%haslyrics% -T "DISCNUMBER=%cdnumber%" -T "TOTALDISCS=%totalcds%" -T "TOTALTRACKS=%numtracks%" %hascover%--picture="%coverfile%"%hascover% %source% -o %dest%

TOC извлечённого CD

Трек | Старт | Длительность | Начальный сектор | Конечный сектор
---------------------------------------------------------------------
1 | 0:00.00 | 3:49.47 | 0 | 17221
2 | 3:49.47 | 3:27.24 | 17222 | 32770
3 | 7:16.71 | 4:21.01 | 32771 | 52346
4 | 11:37.72 | 3:38.13 | 52347 | 68709
5 | 15:16.10 | 2:57.41 | 68710 | 82025
6 | 18:13.51 | 4:31.20 | 82026 | 102370
7 | 22:44.71 | 5:02.48 | 102371 | 125068
8 | 27:47.44 | 3:12.70 | 125069 | 139538
9 | 31:00.39 | 2:59.17 | 139539 | 152980
10 | 33:59.56 | 4:47.67 | 152981 | 174572
11 | 38:47.48 | 3:23.71 | 174573 | 189868
12 | 42:11.44 | 3:36.66 | 189869 | 206134

Характеристики диапазона извлечения и сообщения об ошибках

Выбранный диапазон

Имя файла C:\Users\papez\Desktop\Серьга-Своим чередом(2021)\Серьга - Своим чередом.wav

Пиковый уровень 100.0 %
Скорость извлечения 7.4 X
Качество диапазона 100.0 %
CRC теста B379DF03
CRC копии B379DF03
Копирование... OK

Ошибок не произошло

Конец отчёта
REM GENRE Rock 
REM DATE 2021
REM DISCID AB0ABC0C
REM COMMENT "ExactAudioCopy v1.3"
PERFORMER "Серьга"
TITLE "Своим чередом"
REM COMPOSER ""
FILE "Серьга - Своим чередом.flac" WAVE
TRACK 01 AUDIO
TITLE "Своим чередом"
PERFORMER "Серьга"
REM COMPOSER ""
INDEX 01 00:00:00
TRACK 02 AUDIO
TITLE "Воскресенье (22 июня)"
PERFORMER "Серьга"
REM COMPOSER ""
INDEX 01 03:49:47
TRACK 03 AUDIO
TITLE "Мишка-Мишутка"
PERFORMER "Серьга"
REM COMPOSER ""
INDEX 01 07:16:71
TRACK 04 AUDIO
TITLE "Тебя не сломать (Осень)"
PERFORMER "Серьга"
REM COMPOSER ""
INDEX 01 11:37:72
TRACK 05 AUDIO
TITLE "Это точно про меня (9 мая)"
PERFORMER "Серьга"
REM COMPOSER ""
INDEX 01 15:16:10
TRACK 06 AUDIO
TITLE "Колокольный звон"
PERFORMER "Серьга"
REM COMPOSER ""
INDEX 01 18:13:51
TRACK 07 AUDIO
TITLE "Прости"
PERFORMER "Серьга"
REM COMPOSER ""
INDEX 01 22:44:71
TRACK 08 AUDIO
TITLE "Весёлая тема"
PERFORMER "Серьга"
REM COMPOSER ""
INDEX 01 27:47:44
TRACK 09 AUDIO
TITLE "Не будь атеистом"
PERFORMER "Серьга"
REM COMPOSER ""
INDEX 01 31:00:39
TRACK 10 AUDIO
TITLE "Третья мировая"
PERFORMER "Серьга"
REM COMPOSER ""
INDEX 01 33:59:56
TRACK 11 AUDIO
TITLE "Песня про всё остальное"
PERFORMER "Серьга"
REM COMPOSER ""
INDEX 01 38:47:48
TRACK 12 AUDIO
TITLE "Тебя не сломать (Весна)"
PERFORMER "Серьга"
REM COMPOSER ""
INDEX 01 42:11:44

Этот торрент недоступен для скачивания без регистрации, однако доступен по публичной magnet-ссылке (источники с публичных трекеров). Перед использованием ссылки прочтите, пожалуйста Пользовательское соглашение, а также как можно дольше оставайтесь на раздаче! Для того, чтобы скачать сам торрент-файл (который видит больше источников), а также для того, чтобы поблагодарить релизера, вам необходимо зарегистрироваться. Если регистрироваться лень - вы можете также попробовать скачать релиз по нашим партнерским ссылкам ниже. Кроме того, зарегистрированным пользователям не показывается всплывающая реклама при скачивании.

[underver.se].t233260.torrent
Трекер: Зарегистрирован   [ 17.01.2022 10:37 ]  
Статус: проверено (by Бишеп at 17.01.2022 10:38)
Поблагодарили: пока никто не поблагодарил...
Тип торрента: публичный - доступные источники с открытых трекеров: 
Размер: 359 MB (занимает 0.08 DVDR, для записи нужно 1 болванка DVDR/RW)
 
 

Яндекс.Метрика powered by Sphinx


В Н И М А Н И Е
Сайт не распространяет и не хранит электронные версии произведений, а лишь бесплатно и без коммерческой выгоды (не требуя взамен платы,
SMS и т.д.) предоставляет доступ к создаваемому пользователями каталогу ссылок на торрент-файлы, которые содержат только списки хеш-сумм.
Убедительная просьба с жалобами обращаться напрямую к пользователю, разместившему торрент файл.

Вверх