Loading...
Error

(Groove, Thrash-Metal) VA - A Maximum Tribute to Pantera [Metal Hammer Promo CD] (2022) [FLAC (Image+.CUE), Lossless]

Статистика раздачи
Размер:  314 MB   |    Зарегистрирован:  7 месяцев   |    Скачан:  3 раза

Полного источника не было: 28 дней

Сидов:  0  |  0 KB/s  ]   Личеров:  0  |  0 KB/s  ]

* - сиды/пиры с внешних источников

   
 
Автор Сообщение

Renesans Пол:Муж

29-Янв-2022 20:19

VA - A Maximum Tribute to Pantera [Metal Hammer Promo CD]


Год: 2022
Жанр: Groove, Thrash-Metal
Страна: International
Страна-производитель диска (релиза): Austria
Издатель (лейбл): Metal Hammer
Номер по каталогу: N/A
Наличие сканов в содержимом раздачи: да

Продолжительность: 00:41:25
Формат/Кодек: FLAC
Битрейт аудио: Lossless (image+cue)
01. Cataract - Fucking Hostile 02:54
02. Aborted - Slaughtered 03:57
03. Tyr - Cemetery Gates 07:27
04. Hellsongs - Walk 04:48
05. Whitechapel - Strength Beyond Strength 03:50
06. Nonpoint - 5 Minutes Alone 05:47
07. O'Keefe Music Foundation – Drag The Waters 04:38
08. Steve 'n' Seagulls - I'm Broken 02:59
09. Angelus Apatrida - Domination 05:05
Exact Audio Copy V1.6 from 23. October 2020

EAC extraction logfile from 23. January 2022, 18:38

Various Artists / A Maximum Tribute to Pantera

Used drive : TSSTcorpBDDVDW SE-506CB Adapter: 1 ID: 1

Read mode : Secure
Utilize accurate stream : Yes
Defeat audio cache : Yes
Make use of C2 pointers : No

Read offset correction : 6
Overread into Lead-In and Lead-Out : No
Fill up missing offset samples with silence : Yes
Delete leading and trailing silent blocks : No
Null samples used in CRC calculations : Yes
Used interface : Native Win32 interface for Win NT & 2000

Used output format : User Defined Encoder
Selected bitrate : 1024 kBit/s
Quality : High
Add ID3 tag : No
Command line compressor : C:\Program Files (x86)Exact Audio CopyFlacflac.exe
Additional command line options : -V -8 -T "Date=%year%" -T "Genre=%genre%" %source%

TOC of the extracted CD

Track | Start | Length | Start sector | End sector
---------------------------------------------------------
1 | 0:00.00 | 2:53.56 | 0 | 13030
2 | 2:53.56 | 3:56.69 | 13031 | 30799
3 | 6:50.50 | 7:26.47 | 30800 | 64296
4 | 14:17.22 | 4:48.35 | 64297 | 85931
5 | 19:05.57 | 3:49.66 | 85932 | 103172
6 | 22:55.48 | 5:46.65 | 103173 | 129187
7 | 28:42.38 | 4:38.23 | 129188 | 150060
8 | 33:20.61 | 2:58.50 | 150061 | 163460
9 | 36:19.36 | 5:05.09 | 163461 | 186344

Range status and errors

Selected range

Filename C:\EACungern666Various Artists - A Maximum Tribute to Pantera.wav

Peak level 100.0 %
Extraction speed 1.8 X
Range quality 100.0 %
Test CRC 6D3E4C45
Copy CRC 6D3E4C45
Copy OK

No errors occurred

AccurateRip summary

Track 1 not present in database
Track 2 not present in database
Track 3 not present in database
Track 4 not present in database
Track 5 not present in database
Track 6 not present in database
Track 7 not present in database
Track 8 not present in database
Track 9 not present in database

None of the tracks are present in the AccurateRip database

End of status report

---- AcoustID Plugin V1.2.0

Total fingerprints: 9

---- CUETools DB Plugin V2.1.6

[CTDB TOCID: Qo0JiEJ938RWLl5tMJd6JMCZjdE-] found
Submit result: Qo0JiEJ938RWLl5tMJd6JMCZjdE- has been confirmed
Track | CTDB Status
1 | (8/ 8) Accurately ripped
2 | (8/ 8) Accurately ripped
3 | (8/ 8) Accurately ripped
4 | (8/ 8) Accurately ripped
5 | (8/ 8) Accurately ripped
6 | (8/ 8) Accurately ripped
7 | (8/ 8) Accurately ripped
8 | (8/ 8) Accurately ripped
9 | (8/ 8) Accurately ripped

==== Log checksum 48D41B3A4EE0B92CD1122349F3253654D6AAAECA73EE42424613D33439CC1A1B ====

Этот торрент недоступен для скачивания без регистрации, однако доступен по публичной magnet-ссылке (источники с публичных трекеров). Перед использованием ссылки прочтите, пожалуйста Пользовательское соглашение, а также как можно дольше оставайтесь на раздаче! Для того, чтобы скачать сам торрент-файл (который видит больше источников), а также для того, чтобы поблагодарить релизера, вам необходимо зарегистрироваться. Если регистрироваться лень - вы можете также попробовать скачать релиз по нашим партнерским ссылкам ниже. Кроме того, зарегистрированным пользователям не показывается всплывающая реклама при скачивании.

[underver.se].t234098.torrent
Трекер: Зарегистрирован   [ 29.01.2022 20:19 ]  
Статус: проверено (by Renesans at 29.01.2022 20:19)
Поблагодарили: пока никто не поблагодарил...
Тип торрента: публичный - доступные источники с открытых трекеров: 
Размер: 314 MB (занимает 0.07 DVDR, для записи нужно 1 болванка DVDR/RW)
 
 

Яндекс.Метрика powered by Sphinx


В Н И М А Н И Е
Сайт не распространяет и не хранит электронные версии произведений, а лишь бесплатно и без коммерческой выгоды (не требуя взамен платы,
SMS и т.д.) предоставляет доступ к создаваемому пользователями каталогу ссылок на торрент-файлы, которые содержат только списки хеш-сумм.
Убедительная просьба с жалобами обращаться напрямую к пользователю, разместившему торрент файл.

Вверх