Loading...
Error

(Rock) Кино - 45 (2021) 3CD Remastered [FLAC (Image+.CUE), Lossless]

Статистика раздачи
Размер:  1.1 GB   |    Зарегистрирован:  7 месяцев   |    Скачан:  5 раз

Полного источника не было: 3 месяца 5 дней

Сидов:  0  |  0 KB/s  ]   Личеров:  0  |  0 KB/s  ]

* - сиды/пиры с внешних источников

   
 
Автор Сообщение

Бишеп Пол:Муж

17-Фев-2022 12:52

Кино - 45

Жанр: Rock
Год выпуска: 2021
Носитель: CD
Производитель диска: AnTrop - ATRCD 21451/53
Аудиокодек: FLAC
Тип рипа: Image+.CUE
Битрейт аудио: lossless
Продолжительность: 03:01:41

Треклист:
01. Время есть, а денег нет
02. Алюминиевые огурцы
03. Бездельник №1
04. Просто хочешь ты знать
05. Солнечные дни
06. Электричка
07. Бездельник №2
08. Асфальт
09. Дерево
10. Восьмикласcница
11. Когда-то ты был битником
12. Мои друзья
13. Ситар играл
14. На кухне

Exact Audio Copy V1.0 beta 3 from 29. August 2011 

Отчёт EAC об извлечении, выполненном 25. декабря 2021, 10:35

Кино / 45 [ATRCD 20451]

Дисковод: ASUS DRW-1814BL Adapter: 0 ID: 0

Режим чтения : Достоверность
Использование точного потока : Да
Отключение кэша аудио : Да
Использование указателей C2 : Нет

Коррекция смещения при чтении : 6
Способность читать области Lead-in и Lead-out : Нет
Заполнение пропущенных сэмплов тишиной : Да
Удаление блоков с тишиной в начале и конце : Нет
При вычислениях CRC использовались нулевые сэмплы : Да
Интерфейс : Встроенный Win32-интерфейс для Win NT/2000

Выходной формат : Внутренние WAV-операции
Формат сэмплов : 44.100 Гц; 16 бит; стерео

TOC извлечённого CD

Трек | Старт | Длительность | Начальный сектор | Конечный сектор
---------------------------------------------------------------------
1 | 0:00.00 | 4:34.74 | 0 | 20623
2 | 4:34.74 | 3:08.66 | 20624 | 34789
3 | 7:43.65 | 3:14.33 | 34790 | 49372
4 | 10:58.23 | 3:34.46 | 49373 | 65468
5 | 14:32.69 | 3:31.25 | 65469 | 81318
6 | 18:04.19 | 2:42.42 | 81319 | 93510
7 | 20:46.61 | 3:08.21 | 93511 | 107631
8 | 23:55.07 | 3:19.68 | 107632 | 122624
9 | 27:15.00 | 1:52.27 | 122625 | 131051
10 | 29:07.27 | 2:51.62 | 131052 | 143938
11 | 31:59.14 | 3:52.56 | 143939 | 161394
12 | 35:51.70 | 4:30.14 | 161395 | 181658
13 | 40:22.09 | 1:39.18 | 181659 | 189101
14 | 42:01.27 | 3:13.70 | 189102 | 203646

Характеристики диапазона извлечения и сообщения об ошибках

Выбранный диапазон

Имя файла E:\ley-barmaley\lossless-galaxy.ru\Кино - 45 [ATRCD 20451].wav

Пиковый уровень 100.0 %
Скорость извлечения 3.6 X
Качество диапазона 99.9 %
CRC теста AA49AD90
CRC копии AA49AD90
Копирование... OK

Ошибок не произошло

AccurateRip: сводка
Трек 1 отсутствует в базе данных
Трек 2 отсутствует в базе данных
Трек 3 отсутствует в базе данных
Трек 4 отсутствует в базе данных
Трек 5 отсутствует в базе данных
Трек 6 отсутствует в базе данных
Трек 7 отсутствует в базе данных
Трек 8 отсутствует в базе данных
Трек 9 отсутствует в базе данных
Трек 10 отсутствует в базе данных
Трек 11 отсутствует в базе данных
Трек 12 отсутствует в базе данных
Трек 13 отсутствует в базе данных
Трек 14 отсутствует в базе данных
Ни одного трека нет в базе AccurateRip

Конец отчёта

---- CUETools DB Plugin V2.1.3

[CTDB TOCID: ZBSAeTJrzCHQUq2QMVyh4FD7T8A-] disk not present in database, Submit result: ZBSAeTJrzCHQUq2QMVyh4FD7T8A- has been uploaded

==== Контрольная сумма отчёта D5E15DF23326181849C1F297DB29B8E40274D1C8622B08D87FCF184D664D86EC ====
REM GENRE Rock 
REM DATE 1982 / 2021
REM DISCID C20A9B0E
REM COMMENT "ExactAudioCopy v1.0b3"
PERFORMER "Кино"
TITLE "45 [AnTrop, ATRCD 20451]"
FILE "Кино - 45 [ATRCD 20451].flac" WAVE
TRACK 01 AUDIO
TITLE "Время есть, а денег нет"
PERFORMER "Кино"
INDEX 01 00:00:00
TRACK 02 AUDIO
TITLE "Алюминиевые огурцы"
PERFORMER "Кино"
INDEX 01 04:34:74
TRACK 03 AUDIO
TITLE "Бездельник №1"
PERFORMER "Кино"
INDEX 01 07:43:65
TRACK 04 AUDIO
TITLE "Просто хочешь ты знать"
PERFORMER "Кино"
INDEX 01 10:58:23
TRACK 05 AUDIO
TITLE "Солнечные дни"
PERFORMER "Кино"
INDEX 01 14:32:69
TRACK 06 AUDIO
TITLE "Электричка"
PERFORMER "Кино"
INDEX 01 18:04:19
TRACK 07 AUDIO
TITLE "Бездельник №2"
PERFORMER "Кино"
INDEX 01 20:46:61
TRACK 08 AUDIO
TITLE "Асфальт"
PERFORMER "Кино"
INDEX 01 23:55:07
TRACK 09 AUDIO
TITLE "Дерево"
PERFORMER "Кино"
INDEX 01 27:15:00
TRACK 10 AUDIO
TITLE "Восьмикласcница"
PERFORMER "Кино"
INDEX 01 29:07:27
TRACK 11 AUDIO
TITLE "Когда-то ты был битником"
PERFORMER "Кино"
INDEX 01 31:59:14
TRACK 12 AUDIO
TITLE "Мои друзья"
PERFORMER "Кино"
INDEX 01 35:51:70
TRACK 13 AUDIO
TITLE "Ситар играл"
PERFORMER "Кино"
INDEX 01 40:22:09
TRACK 14 AUDIO
TITLE "На кухне"
PERFORMER "Кино"
INDEX 01 42:01:27
Треклист:
01. Ситар играл
02. Когда-то ты был битником
03. Мои друзья
04. На кухне
05. Время есть, а денег нет
06. Алюминиевые огурцы
07. Солнечные дни
08. Просто хочешь ты знать
09. Восьмикласcница
10. Бездельник 2
11. Дерево
12. Асфальт
13. Бездельник 1
14. Время есть, а денег нет (Дубль 2)
15. Асфальт (Дубль 2)
16. Бездельник 1 (Дубль 2)
Первый концерт в Рок-клубе 03 апреля 1982
17. Бездельник 1
18. Восьмикласcница
19. Время есть, а денег нет
20. Бездельник 2
21. Ситар играл
22. Когда-то ты был битником

Exact Audio Copy V1.0 beta 3 from 29. August 2011 

Отчёт EAC об извлечении, выполненном 25. декабря 2021, 12:10

Кино / 45 [Первоначальный вариант] & Первый концерт в Рок-клубе [ATRCD 20452]

Дисковод: ASUS DRW-1814BL Adapter: 0 ID: 0

Режим чтения : Достоверность
Использование точного потока : Да
Отключение кэша аудио : Да
Использование указателей C2 : Нет

Коррекция смещения при чтении : 6
Способность читать области Lead-in и Lead-out : Нет
Заполнение пропущенных сэмплов тишиной : Да
Удаление блоков с тишиной в начале и конце : Нет
При вычислениях CRC использовались нулевые сэмплы : Да
Интерфейс : Встроенный Win32-интерфейс для Win NT/2000

Выходной формат : Внутренние WAV-операции
Формат сэмплов : 44.100 Гц; 16 бит; стерео

TOC извлечённого CD

Трек | Старт | Длительность | Начальный сектор | Конечный сектор
---------------------------------------------------------------------
1 | 0:00.00 | 1:52.51 | 0 | 8450
2 | 1:52.51 | 3:55.11 | 8451 | 26086
3 | 5:47.62 | 4:31.06 | 26087 | 46417
4 | 10:18.68 | 3:16.70 | 46418 | 61187
5 | 13:35.63 | 4:13.05 | 61188 | 80167
6 | 17:48.68 | 3:13.04 | 80168 | 94646
7 | 21:01.72 | 4:05.17 | 94647 | 113038
8 | 25:07.14 | 3:54.51 | 113039 | 130639
9 | 29:01.65 | 2:51.62 | 130640 | 143526
10 | 31:53.52 | 3:47.18 | 143527 | 160569
11 | 35:40.70 | 1:51.26 | 160570 | 168920
12 | 37:32.21 | 3:17.58 | 168921 | 183753
13 | 40:50.04 | 2:50.67 | 183754 | 196570
14 | 43:40.71 | 4:22.36 | 196571 | 216256
15 | 48:03.32 | 3:40.15 | 216257 | 232771
16 | 51:43.47 | 3:43.63 | 232772 | 249559
17 | 55:27.35 | 3:33.40 | 249560 | 265574
18 | 59:01.00 | 2:31.16 | 265575 | 276915
19 | 61:32.16 | 3:25.20 | 276916 | 292310
20 | 64:57.36 | 3:08.13 | 292311 | 306423
21 | 68:05.49 | 0:29.42 | 306424 | 308640
22 | 68:35.16 | 3:54.25 | 308641 | 326215

Характеристики диапазона извлечения и сообщения об ошибках

Выбранный диапазон

Имя файла E:\ley-barmaley\lossless-galaxy.ru\Кино - 45 [Первоначальный вариант] & Первый концерт в Рок-клубе [ATRCD 20452].wav

Пиковый уровень 99.4 %
Скорость извлечения 2.3 X
Качество диапазона 99.9 %
CRC теста 7E9F4972
CRC копии 7E9F4972
Копирование... OK

Ошибок не произошло

AccurateRip: сводка
Трек 1 отсутствует в базе данных
Трек 2 отсутствует в базе данных
Трек 3 отсутствует в базе данных
Трек 4 отсутствует в базе данных
Трек 5 отсутствует в базе данных
Трек 6 отсутствует в базе данных
Трек 7 отсутствует в базе данных
Трек 8 отсутствует в базе данных
Трек 9 отсутствует в базе данных
Трек 10 отсутствует в базе данных
Трек 11 отсутствует в базе данных
Трек 12 отсутствует в базе данных
Трек 13 отсутствует в базе данных
Трек 14 отсутствует в базе данных
Трек 15 отсутствует в базе данных
Трек 16 отсутствует в базе данных
Трек 17 отсутствует в базе данных
Трек 18 отсутствует в базе данных
Трек 19 отсутствует в базе данных
Трек 20 отсутствует в базе данных
Трек 21 отсутствует в базе данных
Трек 22 отсутствует в базе данных
Ни одного трека нет в базе AccurateRip

Конец отчёта

---- CUETools DB Plugin V2.1.3

[CTDB TOCID: 690aNMu8S.EEApibR5dkPlOzCQU-] disk not present in database, Submit result: 690aNMu8S.EEApibR5dkPlOzCQU- has been uploaded

==== Контрольная сумма отчёта FC79C3A6DB521992C87F38F31B7E07B11185B9A43CEC99B62597440818E55DBD ====
REM GENRE Rock 
REM DATE 1982 / 2021
REM DISCID 3510FD16
REM COMMENT "ExactAudioCopy v1.0b3"
PERFORMER "Кино"
TITLE "45 [Первоначальный вариант] & Первый концерт в Рок-клубе [AnTrop, ATRCD 20452]"
FILE "Кино - 45 [Первоначальный вариант] & Первый концерт в Рок-клубе [ATRCD 20452].flac" WAVE
TRACK 01 AUDIO
TITLE "Ситар играл [Первоначальный вариант]"
PERFORMER "Кино"
INDEX 01 00:00:00
TRACK 02 AUDIO
TITLE "Когда-то ты был битником [Первоначальный вариант]"
PERFORMER "Кино"
INDEX 01 01:52:51
TRACK 03 AUDIO
TITLE "Мои друзья [Первоначальный вариант]"
PERFORMER "Кино"
INDEX 01 05:47:62
TRACK 04 AUDIO
TITLE "На кухне [Первоначальный вариант]"
PERFORMER "Кино"
INDEX 01 10:18:68
TRACK 05 AUDIO
TITLE "Время есть, а денег нет [Первоначальный вариант]"
PERFORMER "Кино"
INDEX 01 13:35:63
TRACK 06 AUDIO
TITLE "Алюминиевые огурцы [Первоначальный вариант]"
PERFORMER "Кино"
INDEX 01 17:48:68
TRACK 07 AUDIO
TITLE "Солнечные дни [Первоначальный вариант]"
PERFORMER "Кино"
INDEX 01 21:01:72
TRACK 08 AUDIO
TITLE "Просто хочешь ты знать [Первоначальный вариант]"
PERFORMER "Кино"
INDEX 01 25:07:14
TRACK 09 AUDIO
TITLE "Восьмикласcница [Первоначальный вариант]"
PERFORMER "Кино"
INDEX 01 29:01:65
TRACK 10 AUDIO
TITLE "Бездельник 2 [Первоначальный вариант]"
PERFORMER "Кино"
INDEX 01 31:53:52
TRACK 11 AUDIO
TITLE "Дерево [Первоначальный вариант]"
PERFORMER "Кино"
INDEX 01 35:40:70
TRACK 12 AUDIO
TITLE "Асфальт [Первоначальный вариант]"
PERFORMER "Кино"
INDEX 01 37:32:21
TRACK 13 AUDIO
TITLE "Бездельник 1 [Первоначальный вариант]"
PERFORMER "Кино"
INDEX 01 40:50:04
TRACK 14 AUDIO
TITLE "Время есть, а денег нет [Первоначальный вариант. Дубль 2]"
PERFORMER "Кино"
INDEX 01 43:40:71
TRACK 15 AUDIO
TITLE "Асфальт [Первоначальный вариант. Дубль 2]"
PERFORMER "Кино"
INDEX 01 48:03:32
TRACK 16 AUDIO
TITLE "Бездельник 1 [Первоначальный вариант. Дубль 2]"
PERFORMER "Кино"
INDEX 01 51:43:47
TRACK 17 AUDIO
TITLE "Бездельник 1 [Первый концерт в Рок-клубе 03 апреля 1982]"
PERFORMER "Кино"
INDEX 01 55:27:35
TRACK 18 AUDIO
TITLE "Восьмикласcница [Первый концерт в Рок-клубе 03 апреля 1982]"
PERFORMER "Кино"
INDEX 01 59:01:00
TRACK 19 AUDIO
TITLE "Время есть, а денег нет [Первый концерт в Рок-клубе 03 апреля 1982]"
PERFORMER "Кино"
INDEX 01 61:32:16
TRACK 20 AUDIO
TITLE "Бездельник 2 [Первый концерт в Рок-клубе 03 апреля 1982]"
PERFORMER "Кино"
INDEX 01 64:57:36
TRACK 21 AUDIO
TITLE "Ситар играл [Первый концерт в Рок-клубе 03 апреля 1982]"
PERFORMER "Кино"
INDEX 01 68:05:49
TRACK 22 AUDIO
TITLE "Когда-то ты был битником [Первый концерт в Рок-клубе 03 апреля 1982]"
PERFORMER "Кино"
INDEX 01 68:35:16
Треклист:
01. Просто хочешь ты знать
02. Солнечные дни
03. Весна
04. Алюминиевые огурцы
05. Бездельник 1
06. Бездельник 2
07. Время есть, а денег нет
08. Моё настроение
09. Восьмикласcница
10. Лето
11. Электричка
12. Дождь (Ты есть...)
13. Когда-то ты был битником
14. Ситар играл
15. Асфальт
16. Пригородный блюз
***
17. Звери
18. Осень
19. Холодильник
20. Когда-то ты был битником (Вариант)
21. Моё настроение (Вариант)

Exact Audio Copy V1.0 beta 3 from 29. August 2011 

Отчёт EAC об извлечении, выполненном 25. декабря 2021, 13:55

Кино / «Каретный ряд» [ATRCD 20453]

Дисковод: ASUS DRW-1814BL Adapter: 0 ID: 0

Режим чтения : Достоверность
Использование точного потока : Да
Отключение кэша аудио : Да
Использование указателей C2 : Нет

Коррекция смещения при чтении : 6
Способность читать области Lead-in и Lead-out : Нет
Заполнение пропущенных сэмплов тишиной : Да
Удаление блоков с тишиной в начале и конце : Нет
При вычислениях CRC использовались нулевые сэмплы : Да
Интерфейс : Встроенный Win32-интерфейс для Win NT/2000

Выходной формат : Внутренние WAV-операции
Формат сэмплов : 44.100 Гц; 16 бит; стерео

TOC извлечённого CD

Трек | Старт | Длительность | Начальный сектор | Конечный сектор
---------------------------------------------------------------------
1 | 0:00.00 | 3:31.46 | 0 | 15870
2 | 3:31.46 | 3:20.50 | 15871 | 30920
3 | 6:52.21 | 2:27.05 | 30921 | 41950
4 | 9:19.26 | 2:46.60 | 41951 | 54460
5 | 12:06.11 | 2:54.16 | 54461 | 67526
6 | 15:00.27 | 3:16.17 | 67527 | 82243
7 | 18:16.44 | 3:14.27 | 82244 | 96820
8 | 21:30.71 | 2:46.01 | 96821 | 109271
9 | 24:16.72 | 2:50.15 | 109272 | 122036
10 | 27:07.12 | 3:16.17 | 122037 | 136753
11 | 30:23.29 | 2:49.36 | 136754 | 149464
12 | 33:12.65 | 2:35.07 | 149465 | 161096
13 | 35:47.72 | 3:46.20 | 161097 | 178066
14 | 39:34.17 | 1:25.43 | 178067 | 184484
15 | 40:59.60 | 1:58.66 | 184485 | 193400
16 | 42:58.51 | 2:47.71 | 193401 | 205996
17 | 45:46.47 | 5:13.38 | 205997 | 229509
18 | 51:00.10 | 2:29.65 | 229510 | 240749
19 | 53:30.00 | 2:45.18 | 240750 | 253142
20 | 56:15.18 | 4:25.13 | 253143 | 273030
21 | 60:40.31 | 3:15.69 | 273031 | 287724

Характеристики диапазона извлечения и сообщения об ошибках

Выбранный диапазон

Имя файла E:\ley-barmaley\lossless-galaxy.ru\Кино - «Каретный ряд» [ATRCD 20453].wav

Пиковый уровень 98.3 %
Скорость извлечения 2.2 X
Качество диапазона 99.9 %
CRC теста 1FC57F02
CRC копии 1FC57F02
Копирование... OK

Ошибок не произошло

AccurateRip: сводка
Трек 1 отсутствует в базе данных
Трек 2 отсутствует в базе данных
Трек 3 отсутствует в базе данных
Трек 4 отсутствует в базе данных
Трек 5 отсутствует в базе данных
Трек 6 отсутствует в базе данных
Трек 7 отсутствует в базе данных
Трек 8 отсутствует в базе данных
Трек 9 отсутствует в базе данных
Трек 10 отсутствует в базе данных
Трек 11 отсутствует в базе данных
Трек 12 отсутствует в базе данных
Трек 13 отсутствует в базе данных
Трек 14 отсутствует в базе данных
Трек 15 отсутствует в базе данных
Трек 16 отсутствует в базе данных
Трек 17 отсутствует в базе данных
Трек 18 отсутствует в базе данных
Трек 19 отсутствует в базе данных
Трек 20 отсутствует в базе данных
Трек 21 отсутствует в базе данных
Ни одного трека нет в базе AccurateRip

Конец отчёта

---- CUETools DB Plugin V2.1.3

[CTDB TOCID: NdxY41fStZw9BcWzi4Hbtu1oJNw-] disk not present in database, Submit result: NdxY41fStZw9BcWzi4Hbtu1oJNw- has been uploaded

==== Контрольная сумма отчёта EFDD8E94B98E48CC016DB94BEB8D9B57F15AEA300A64677316B71CB43B25968C ====
REM GENRE Rock 
REM DATE 1982 / 2021
REM DISCID 2E0EFC15
REM COMMENT "ExactAudioCopy v1.0b3"
PERFORMER "Кино"
TITLE "«Каретный ряд» [«Квартирник» у Александра Липницкого 25 июля 1982. Москва, Каретный ряд, дом 5] [AnTrop, ATRCD 20453]"
FILE "Кино - «Каретный ряд» [ATRCD 20453].flac" WAVE
TRACK 01 AUDIO
TITLE "Просто хочешь ты знать [«Каретный ряд»]"
PERFORMER "Кино"
INDEX 01 00:00:00
TRACK 02 AUDIO
TITLE "Солнечные дни [«Каретный ряд»]"
PERFORMER "Кино"
INDEX 01 03:31:46
TRACK 03 AUDIO
TITLE "Весна [«Каретный ряд»]"
PERFORMER "Кино"
INDEX 01 06:52:21
TRACK 04 AUDIO
TITLE "Алюминиевые огурцы [«Каретный ряд»]"
PERFORMER "Кино"
INDEX 01 09:19:26
TRACK 05 AUDIO
TITLE "Бездельник 1 [«Каретный ряд»]"
PERFORMER "Кино"
INDEX 01 12:06:11
TRACK 06 AUDIO
TITLE "Бездельник 2 [«Каретный ряд»]"
PERFORMER "Кино"
INDEX 01 15:00:27
TRACK 07 AUDIO
TITLE "Время есть, а денег нет [«Каретный ряд»]"
PERFORMER "Кино"
INDEX 01 18:16:44
TRACK 08 AUDIO
TITLE "Моё настроение [«Каретный ряд»]"
PERFORMER "Кино"
INDEX 01 21:30:71
TRACK 09 AUDIO
TITLE "Восьмикласcница [«Каретный ряд»]"
PERFORMER "Кино"
INDEX 01 24:16:72
TRACK 10 AUDIO
TITLE "Лето [«Каретный ряд»]"
PERFORMER "Кино"
INDEX 01 27:07:12
TRACK 11 AUDIO
TITLE "Электричка [«Каретный ряд»]"
PERFORMER "Кино"
INDEX 01 30:23:29
TRACK 12 AUDIO
TITLE "Дождь (Ты есть...) [«Каретный ряд»]"
PERFORMER "Кино"
INDEX 01 33:12:65
TRACK 13 AUDIO
TITLE "Когда-то ты был битником [«Каретный ряд»]"
PERFORMER "Кино"
INDEX 01 35:47:72
TRACK 14 AUDIO
TITLE "Ситар играл [«Каретный ряд»]"
PERFORMER "Кино"
INDEX 01 39:34:17
TRACK 15 AUDIO
TITLE "Асфальт [«Каретный ряд»]"
PERFORMER "Кино"
INDEX 01 40:59:60
TRACK 16 AUDIO
TITLE "Пригородный блюз [«Каретный ряд»]"
PERFORMER "Кино"
INDEX 01 42:58:51
TRACK 17 AUDIO
TITLE "Звери [Акустика '82]"
PERFORMER "Кино"
INDEX 01 45:46:47
TRACK 18 AUDIO
TITLE "Осень [Акустика '82]"
PERFORMER "Кино"
INDEX 01 51:00:10
TRACK 19 AUDIO
TITLE "Холодильник [Акустика '82]"
PERFORMER "Кино"
INDEX 01 53:30:00
TRACK 20 AUDIO
TITLE "Когда-то ты был битником (вариант) [Акустика '82]"
PERFORMER "Кино"
INDEX 01 56:15:18
TRACK 21 AUDIO
TITLE "Моё настроение (вариант) [Акустика '82]"
PERFORMER "Кино"
INDEX 01 60:40:31

Этот торрент недоступен для скачивания без регистрации, однако доступен по публичной magnet-ссылке (источники с публичных трекеров). Перед использованием ссылки прочтите, пожалуйста Пользовательское соглашение, а также как можно дольше оставайтесь на раздаче! Для того, чтобы скачать сам торрент-файл (который видит больше источников), а также для того, чтобы поблагодарить релизера, вам необходимо зарегистрироваться. Если регистрироваться лень - вы можете также попробовать скачать релиз по нашим партнерским ссылкам ниже. Кроме того, зарегистрированным пользователям не показывается всплывающая реклама при скачивании.

[underver.se].t235710.torrent
Трекер: Зарегистрирован   [ 17.02.2022 12:52 ]  
Статус: проверено (by Бишеп at 17.02.2022 12:52)
Поблагодарили: пока никто не поблагодарил...
Тип торрента: публичный - доступные источники с открытых трекеров: 
Размер: 1.1 GB (занимает 0.25 DVDR, для записи нужно 1 болванка DVDR/RW)
 
 

Яндекс.Метрика powered by Sphinx


В Н И М А Н И Е
Сайт не распространяет и не хранит электронные версии произведений, а лишь бесплатно и без коммерческой выгоды (не требуя взамен платы,
SMS и т.д.) предоставляет доступ к создаваемому пользователями каталогу ссылок на торрент-файлы, которые содержат только списки хеш-сумм.
Убедительная просьба с жалобами обращаться напрямую к пользователю, разместившему торрент файл.

Вверх