Loading...
Error

(Pop Rock, Soft Rock) Ольга Кормухина - Лучшие Песни (2016) 2CD [FLAC (Image+.CUE), Lossless]

Статистика раздачи
Размер:  1.07 GB   |    Зарегистрирован:  7 месяцев   |    Скачан:  6 раз

Полного источника не было: 1 месяц 14 дней

Сидов:  0  |  0 KB/s  ]   Личеров:  0  |  0 KB/s  ]

* - сиды/пиры с внешних источников

   
 
Автор Сообщение

Бишеп Пол:Муж

17-Фев-2022 13:10

Ольга Кормухина - Лучшие Песни

Жанр: Pop Rock, Soft Rock
Год выпуска: 2016
Носитель: CD
Производитель диска: Zebra Studio, Digital Records - none
Аудиокодек: FLAC
Тип рипа: Image+.CUE
Битрейт аудио: lossless
Продолжительность: 02:23:53

Треклист:
01. Путь (04:59)
02. Кукушка (03:50)
03. Падаю в небо (03:17)
04. Говори, не молчи (03:42)
05. Остров (03:07)
06. Больше не боюсь (02:56)
07. Нас учили быть птицами (04:07)
08. 93-й (06:19)
09. Звездный костер (04:34)
10. Я не верю тебе (04:28)
11. Ждать (03:43)
12. Это осень (03:57)
13. I'm on My Way (04:37)
14. Что в имени тебе моем (03:05)
15. Мужики (03:35)
16. Ангел (03:09)
17. Плывущее кафе (03:59)
18. Тоша (03:42)

Exact Audio Copy V1.1 from 23. June 2015 

EAC extraction logfile from 17. January 2022, 13:55

Ольга Кормухина / Лучшие песни

Used drive : MATSHITADVD+-RW SW830 Adapter: 1 ID: 0

Read mode : Secure
Utilize accurate stream : Yes
Defeat audio cache : Yes
Make use of C2 pointers : No

Read offset correction : 6
Overread into Lead-In and Lead-Out : No
Fill up missing offset samples with silence : Yes
Delete leading and trailing silent blocks : No
Null samples used in CRC calculations : Yes
Used interface : Native Win32 interface for Win NT & 2000

Used output format : User Defined Encoder
Selected bitrate : 768 kBit/s
Quality : High
Add ID3 tag : No
Command line compressor : C:\Program Files (x86)\Exact Audio Copy\FLAC\FLAC.EXE
Additional command line options : -6 -V -T "ARTIST=%artist%" -T "TITLE=%title%" -T "ALBUM=%albumtitle%" -T "DATE=%year%" -T "TRACKNUMBER=%tracknr%" -T "GENRE=%genre%" -T "COMMENT=%comment%" -T "BAND=%albuminterpret%" -T "ALBUMARTIST=%albuminterpret%" -T "COMPOSER=%composer%" %haslyrics%--tag-from-file=LYRICS="%lyricsfile%"%haslyrics% -T "DISCNUMBER=%cdnumber%" -T "TOTALDISCS=%totalcds%" -T "TOTALTRACKS=%numtracks%" %hascover%--picture="%coverfile%"%hascover% %source% -o %dest%

TOC of the extracted CD

Track | Start | Length | Start sector | End sector
---------------------------------------------------------
1 | 0:00.00 | 4:59.03 | 0 | 22427
2 | 4:59.03 | 3:50.30 | 22428 | 39707
3 | 8:49.33 | 3:17.29 | 39708 | 54511
4 | 12:06.62 | 3:42.02 | 54512 | 71163
5 | 15:48.64 | 3:07.59 | 71164 | 85247
6 | 18:56.48 | 2:56.33 | 85248 | 98480
7 | 21:53.06 | 4:07.44 | 98481 | 117049
8 | 26:00.50 | 6:19.74 | 117050 | 145548
9 | 32:20.49 | 4:34.53 | 145549 | 166151
10 | 36:55.27 | 4:28.11 | 166152 | 186262
11 | 41:23.38 | 3:43.50 | 186263 | 203037
12 | 45:07.13 | 3:57.40 | 203038 | 220852
13 | 49:04.53 | 4:37.25 | 220853 | 241652
14 | 53:42.03 | 3:05.09 | 241653 | 255536
15 | 56:47.12 | 3:35.45 | 255537 | 271706
16 | 60:22.57 | 3:09.67 | 271707 | 285948
17 | 63:32.49 | 3:59.21 | 285949 | 303894
18 | 67:31.70 | 3:42.24 | 303895 | 320568

Range status and errors

Selected range

Filename C:\Users\Boris\Desktop\lossless-galaxy.ru\Kormuha\CD1\Ольга Кормухина - Лучшие песни.wav

Peak level 100.0 %
Extraction speed 6.7 X
Range quality 100.0 %
Test CRC 61714DFA
Copy CRC 61714DFA
Copy OK

No errors occurred

AccurateRip summary
Track 1 accurately ripped (confidence 2) [8E8D9CC1] (AR v2)
Track 2 accurately ripped (confidence 2) [BEADDAFA] (AR v2)
Track 3 accurately ripped (confidence 2) [F2F545A8] (AR v2)
Track 4 accurately ripped (confidence 2) [290A903A] (AR v2)
Track 5 accurately ripped (confidence 2) [04761BE3] (AR v2)
Track 6 accurately ripped (confidence 2) [2962668C] (AR v2)
Track 7 accurately ripped (confidence 2) [0D776DAB] (AR v2)
Track 8 accurately ripped (confidence 2) [B540BE82] (AR v2)
Track 9 accurately ripped (confidence 2) [BA32EBCF] (AR v2)
Track 10 accurately ripped (confidence 2) [823FD77C] (AR v2)
Track 11 accurately ripped (confidence 2) [57A247E8] (AR v2)
Track 12 accurately ripped (confidence 2) [B92B5B21] (AR v2)
Track 13 accurately ripped (confidence 2) [9613ADF9] (AR v2)
Track 14 accurately ripped (confidence 2) [C611DC7D] (AR v2)
Track 15 accurately ripped (confidence 2) [9C9F7CD9] (AR v2)
Track 16 accurately ripped (confidence 2) [89B0FC9D] (AR v2)
Track 17 accurately ripped (confidence 2) [D4996BA2] (AR v2)
Track 18 accurately ripped (confidence 2) [BA73FFAA] (AR v2)
All tracks accurately ripped

End of status report

---- CUETools DB Plugin V2.1.6

[CTDB TOCID: Lg28vNWeO_J9aYKNbiHZUsZdgW4-] found
Submit result: already submitted
Track | CTDB Status
1 | (2/2) Accurately ripped
2 | (2/2) Accurately ripped
3 | (2/2) Accurately ripped
4 | (2/2) Accurately ripped
5 | (2/2) Accurately ripped
6 | (2/2) Accurately ripped
7 | (2/2) Accurately ripped
8 | (2/2) Accurately ripped
9 | (2/2) Accurately ripped
10 | (2/2) Accurately ripped
11 | (2/2) Accurately ripped
12 | (2/2) Accurately ripped
13 | (2/2) Accurately ripped
14 | (2/2) Accurately ripped
15 | (2/2) Accurately ripped
16 | (2/2) Accurately ripped
17 | (2/2) Accurately ripped
18 | (2/2) Accurately ripped

==== Log checksum 70F16D77A429B7EEF731889DB6DB7B78CE5C9848529F0B830AEA33BE172907C1 ====
REM GENRE Rock 
REM DATE 2016
REM DISCID EF10B212
REM COMMENT "ExactAudioCopy v1.1"
PERFORMER "Ольга Кормухина"
TITLE "Лучшие песни"
FILE "Ольга Кормухина - Лучшие песни.flac" WAVE
TRACK 01 AUDIO
TITLE "Путь"
PERFORMER "Ольга Кормухина"
INDEX 01 00:00:00
TRACK 02 AUDIO
TITLE "Кукушка"
PERFORMER "Ольга Кормухина"
INDEX 00 04:57:03
INDEX 01 04:59:03
TRACK 03 AUDIO
TITLE "Падаю в небо"
PERFORMER "Ольга Кормухина"
INDEX 00 08:47:33
INDEX 01 08:49:33
TRACK 04 AUDIO
TITLE "Говори, не молчи"
PERFORMER "Ольга Кормухина"
INDEX 00 12:04:62
INDEX 01 12:06:62
TRACK 05 AUDIO
TITLE "Остров"
PERFORMER "Ольга Кормухина"
INDEX 00 15:46:64
INDEX 01 15:48:64
TRACK 06 AUDIO
TITLE "Больше не боюсь"
PERFORMER "Ольга Кормухина"
INDEX 00 18:54:48
INDEX 01 18:56:48
TRACK 07 AUDIO
TITLE "Нас учили быть птицами"
PERFORMER "Ольга Кормухина"
INDEX 00 21:51:06
INDEX 01 21:53:06
TRACK 08 AUDIO
TITLE "93-й"
PERFORMER "Ольга Кормухина"
INDEX 00 25:58:50
INDEX 01 26:00:50
TRACK 09 AUDIO
TITLE "Звездный костер"
PERFORMER "Ольга Кормухина"
INDEX 00 32:18:49
INDEX 01 32:20:49
TRACK 10 AUDIO
TITLE "Я не верю тебе"
PERFORMER "Ольга Кормухина"
INDEX 00 36:53:27
INDEX 01 36:55:27
TRACK 11 AUDIO
TITLE "Ждать"
PERFORMER "Ольга Кормухина"
INDEX 00 41:21:38
INDEX 01 41:23:38
TRACK 12 AUDIO
TITLE "Это осень"
PERFORMER "Ольга Кормухина"
INDEX 00 45:05:13
INDEX 01 45:07:13
TRACK 13 AUDIO
TITLE "I'm on My Way"
PERFORMER "Ольга Кормухина"
INDEX 00 49:02:53
INDEX 01 49:04:53
TRACK 14 AUDIO
TITLE "Что в имени тебе моем"
PERFORMER "Ольга Кормухина"
INDEX 00 53:40:03
INDEX 01 53:42:03
TRACK 15 AUDIO
TITLE "Мужики"
PERFORMER "Ольга Кормухина"
INDEX 00 56:45:12
INDEX 01 56:47:12
TRACK 16 AUDIO
TITLE "Ангел"
PERFORMER "Ольга Кормухина"
INDEX 00 60:20:57
INDEX 01 60:22:57
TRACK 17 AUDIO
TITLE "Плывущее кафе"
PERFORMER "Ольга Кормухина"
INDEX 00 63:30:49
INDEX 01 63:32:49
TRACK 18 AUDIO
TITLE "Тоша"
PERFORMER "Ольга Кормухина"
INDEX 00 67:29:70
INDEX 01 67:31:70
Треклист:
01. Корабль (03:29)
02. В красном (04:29)
03. Желтая дорога (03:52)
04. Мой первый день (03:56)
05. Я не твоя (05:25)
06. Время пришло (03:25)
07. Moscow calling (04:01)
08. Открой мне дверь (03:34)
09. Шарманщик (03:43)
10. Взгляни на эту землю с высоты (04:40)
11. Ангел-хранитель (04:23)
12. Капля любви (05:06)
13. Зачем я тут (03:48)
14. Сердце не отель (03:13)
15. Орел (04:43)
16. Boys don't cry (03:39)
17. Эпилог (03:27)
18. Ночь (03:38)

Exact Audio Copy V1.1 from 23. June 2015 

EAC extraction logfile from 17. January 2022, 15:10

Ольга Кормухина / Лучшие песни CD2

Used drive : MATSHITADVD+-RW SW830 Adapter: 1 ID: 0

Read mode : Secure
Utilize accurate stream : Yes
Defeat audio cache : Yes
Make use of C2 pointers : No

Read offset correction : 6
Overread into Lead-In and Lead-Out : No
Fill up missing offset samples with silence : Yes
Delete leading and trailing silent blocks : No
Null samples used in CRC calculations : Yes
Used interface : Native Win32 interface for Win NT & 2000

Used output format : User Defined Encoder
Selected bitrate : 768 kBit/s
Quality : High
Add ID3 tag : No
Command line compressor : C:\Program Files (x86)\Exact Audio Copy\FLAC\FLAC.EXE
Additional command line options : -6 -V -T "ARTIST=%artist%" -T "TITLE=%title%" -T "ALBUM=%albumtitle%" -T "DATE=%year%" -T "TRACKNUMBER=%tracknr%" -T "GENRE=%genre%" -T "COMMENT=%comment%" -T "BAND=%albuminterpret%" -T "ALBUMARTIST=%albuminterpret%" -T "COMPOSER=%composer%" %haslyrics%--tag-from-file=LYRICS="%lyricsfile%"%haslyrics% -T "DISCNUMBER=%cdnumber%" -T "TOTALDISCS=%totalcds%" -T "TOTALTRACKS=%numtracks%" %hascover%--picture="%coverfile%"%hascover% %source% -o %dest%

TOC of the extracted CD

Track | Start | Length | Start sector | End sector
---------------------------------------------------------
1 | 0:00.00 | 3:29.08 | 0 | 15682
2 | 3:29.08 | 4:29.30 | 15683 | 35887
3 | 7:58.38 | 3:52.42 | 35888 | 53329
4 | 11:51.05 | 3:56.23 | 53330 | 71052
5 | 15:47.28 | 5:25.11 | 71053 | 95438
6 | 21:12.39 | 3:25.46 | 95439 | 110859
7 | 24:38.10 | 4:01.57 | 110860 | 128991
8 | 28:39.67 | 3:34.09 | 128992 | 145050
9 | 32:14.01 | 3:43.45 | 145051 | 161820
10 | 35:57.46 | 4:40.55 | 161821 | 182875
11 | 40:38.26 | 4:23.69 | 182876 | 202669
12 | 45:02.20 | 5:06.08 | 202670 | 225627
13 | 50:08.28 | 3:48.66 | 225628 | 242793
14 | 53:57.19 | 3:13.03 | 242794 | 257271
15 | 57:10.22 | 4:43.69 | 257272 | 278565
16 | 61:54.16 | 3:39.23 | 278566 | 295013
17 | 65:33.39 | 3:27.48 | 295014 | 310586
18 | 69:01.12 | 3:38.13 | 310587 | 326949

Range status and errors

Selected range

Filename C:\Users\Boris\Desktop\lossless-galaxy.ru\Kormuha\CD2\Ольга Кормухина - Лучшие песни CD2.wav

Peak level 100.0 %
Extraction speed 5.1 X
Range quality 99.9 %
Test CRC 55B15269
Copy CRC 55B15269
Copy OK

No errors occurred

AccurateRip summary
Track 1 accurately ripped (confidence 1) [8ADA11FE] (AR v2)
Track 2 accurately ripped (confidence 1) [C3B3715F] (AR v2)
Track 3 accurately ripped (confidence 1) [72D77B13] (AR v2)
Track 4 accurately ripped (confidence 1) [00D66D7B] (AR v2)
Track 5 accurately ripped (confidence 1) [0621D3F2] (AR v2)
Track 6 accurately ripped (confidence 1) [41EE132A] (AR v2)
Track 7 accurately ripped (confidence 1) [5AC08F23] (AR v2)
Track 8 accurately ripped (confidence 1) [9B16AD73] (AR v2)
Track 9 accurately ripped (confidence 1) [E7BB4304] (AR v2)
Track 10 accurately ripped (confidence 1) [6E375F5E] (AR v2)
Track 11 accurately ripped (confidence 1) [FEC44085] (AR v2)
Track 12 accurately ripped (confidence 1) [F4959D1C] (AR v2)
Track 13 accurately ripped (confidence 1) [D7B2104E] (AR v2)
Track 14 accurately ripped (confidence 1) [E29FD9DF] (AR v2)
Track 15 accurately ripped (confidence 1) [9C8D6180] (AR v2)
Track 16 accurately ripped (confidence 1) [0BBC9CEA] (AR v2)
Track 17 cannot be verified as accurate (confidence 1) [9A8133B2], AccurateRip returned [9B2D64B1] (AR v2)
Track 18 accurately ripped (confidence 1) [2BCA79B3] (AR v2)
17 track(s) accurately ripped
1 track(s) could not be verified as accurate

Some tracks could not be verified as accurate

End of status report

---- CUETools DB Plugin V2.1.6

[CTDB TOCID: q.Yj.n6dB7Z5uC1rdmdonrmwqaY-] found
Submit result: q.Yj.n6dB7Z5uC1rdmdonrmwqaY- has been confirmed
Track | CTDB Status
1 | (1/1) Accurately ripped
2 | (1/1) Accurately ripped
3 | (1/1) Accurately ripped
4 | (1/1) Accurately ripped
5 | (1/1) Accurately ripped
6 | (1/1) Accurately ripped
7 | (1/1) Accurately ripped
8 | (1/1) Accurately ripped
9 | (1/1) Accurately ripped
10 | (1/1) Accurately ripped
11 | (1/1) Accurately ripped
12 | (1/1) Accurately ripped
13 | (1/1) Accurately ripped
14 | (1/1) Accurately ripped
15 | (1/1) Accurately ripped
16 | (1/1) Accurately ripped
17 | (1/1) Accurately ripped
18 | (1/1) Accurately ripped

==== Log checksum BEC3BFB370753F79DB53996E99AB6A0046617CE48C1B33B08F006C750BD85544 ====
REM GENRE Rock 
REM DATE 2016
REM DISCID E6110712
REM COMMENT "ExactAudioCopy v1.1"
PERFORMER "Ольга Кормухина"
TITLE "Лучшие песни CD2"
FILE "Ольга Кормухина - Лучшие песни CD2.flac" WAVE
TRACK 01 AUDIO
TITLE "Корабль"
PERFORMER "Ольга Кормухина"
INDEX 01 00:00:00
TRACK 02 AUDIO
TITLE "В красном"
PERFORMER "Ольга Кормухина"
INDEX 00 03:27:08
INDEX 01 03:29:08
TRACK 03 AUDIO
TITLE "Желтая дорога"
PERFORMER "Ольга Кормухина"
INDEX 00 07:56:38
INDEX 01 07:58:38
TRACK 04 AUDIO
TITLE "Мой первый день"
PERFORMER "Ольга Кормухина"
INDEX 00 11:49:05
INDEX 01 11:51:05
TRACK 05 AUDIO
TITLE "Я не твоя"
PERFORMER "Ольга Кормухина"
INDEX 00 15:45:28
INDEX 01 15:47:28
TRACK 06 AUDIO
TITLE "Время пришло"
PERFORMER "Ольга Кормухина"
INDEX 00 21:10:39
INDEX 01 21:12:39
TRACK 07 AUDIO
TITLE "Moscow calling "
PERFORMER "Ольга Кормухина"
INDEX 00 24:36:10
INDEX 01 24:38:10
TRACK 08 AUDIO
TITLE "Открой мне дверь"
PERFORMER "Ольга Кормухина"
INDEX 00 28:37:67
INDEX 01 28:39:67
TRACK 09 AUDIO
TITLE "Шарманщик"
PERFORMER "Ольга Кормухина"
INDEX 00 32:12:01
INDEX 01 32:14:01
TRACK 10 AUDIO
TITLE "Взгляни на эту землю с высоты"
PERFORMER "Ольга Кормухина"
INDEX 00 35:55:46
INDEX 01 35:57:46
TRACK 11 AUDIO
TITLE "Ангел-хранитель"
PERFORMER "Ольга Кормухина"
INDEX 00 40:36:26
INDEX 01 40:38:26
TRACK 12 AUDIO
TITLE "Капля любви"
PERFORMER "Ольга Кормухина"
INDEX 00 45:00:20
INDEX 01 45:02:20
TRACK 13 AUDIO
TITLE "Зачем я тут"
PERFORMER "Ольга Кормухина"
INDEX 00 50:06:28
INDEX 01 50:08:28
TRACK 14 AUDIO
TITLE "Сердце не отель"
PERFORMER "Ольга Кормухина"
INDEX 00 53:55:19
INDEX 01 53:57:19
TRACK 15 AUDIO
TITLE "Орел"
PERFORMER "Ольга Кормухина"
INDEX 00 57:08:22
INDEX 01 57:10:22
TRACK 16 AUDIO
TITLE "Boys don't cry"
PERFORMER "Ольга Кормухина"
INDEX 00 61:52:16
INDEX 01 61:54:16
TRACK 17 AUDIO
TITLE "Эпилог"
PERFORMER "Ольга Кормухина"
INDEX 00 65:31:39
INDEX 01 65:33:39
TRACK 18 AUDIO
TITLE "Ночь"
PERFORMER "Ольга Кормухина"
INDEX 00 68:59:12
INDEX 01 69:01:12

Этот торрент недоступен для скачивания без регистрации, однако доступен по публичной magnet-ссылке (источники с публичных трекеров). Перед использованием ссылки прочтите, пожалуйста Пользовательское соглашение, а также как можно дольше оставайтесь на раздаче! Для того, чтобы скачать сам торрент-файл (который видит больше источников), а также для того, чтобы поблагодарить релизера, вам необходимо зарегистрироваться. Если регистрироваться лень - вы можете также попробовать скачать релиз по нашим партнерским ссылкам ниже. Кроме того, зарегистрированным пользователям не показывается всплывающая реклама при скачивании.

[underver.se].t235711.torrent
Трекер: Зарегистрирован   [ 17.02.2022 13:10 ]  
Статус: проверено (by Бишеп at 17.02.2022 13:10)
Поблагодарили: 1 человек
Тип торрента: публичный - доступные источники с открытых трекеров: 
Размер: 1.07 GB (занимает 0.24 DVDR, для записи нужно 1 болванка DVDR/RW)
 
 

Яндекс.Метрика powered by Sphinx


В Н И М А Н И Е
Сайт не распространяет и не хранит электронные версии произведений, а лишь бесплатно и без коммерческой выгоды (не требуя взамен платы,
SMS и т.д.) предоставляет доступ к создаваемому пользователями каталогу ссылок на торрент-файлы, которые содержат только списки хеш-сумм.
Убедительная просьба с жалобами обращаться напрямую к пользователю, разместившему торрент файл.

Вверх