Loading...
Error

(Power Metal, Folk Metal) Brothers Of Metal - Prophecy Of Ragnarok (2018) Limited Edition [FLAC (Image+.CUE), Lossless]

Статистика раздачи
Размер:  463 MB   |    Зарегистрирован:  6 месяцев   |    Скачан:  1 раз

Полного источника не было: 1 месяц 24 дня

Сидов:  0  |  0 KB/s  ]   Личеров:  0  |  0 KB/s  ]

* - сиды/пиры с внешних источников

   
 
Автор Сообщение

Бишеп Пол:Муж

04-Мар-2022 09:51

Brothers Of Metal - Prophecy Of Ragnarök

Жанр: Power Metal, Folk Metal
Год выпуска: 2018
Носитель: CD
Производитель диска: AFM Records - AFM 712-9
Аудиокодек: FLAC
Тип рипа: Image+.CUE
Битрейт аудио: lossless
Продолжительность: 00:51:52


Треклист:
01. The Death of the God of Light (03:32)
02. Son of Odin (04:01)
03. Prophecy of Ragnarök (03:44)
04. Defenders of Valhalla (04:11)
05. Concerning Norns (01:40)
06. Yggdrasil (04:34)
07. Tyr (03:38)
08. Siblings of Metal (03:38)
09. Gods of War (03:57)
10. Freya (04:15)
11. The Mead Song (03:39)
12. Sleipnir (03:06)
13. Fire Blood and Steel (03:14)
14. We Believe in Metal (04:43)

Exact Audio Copy V1.3 from 2. September 2016 

EAC extraction logfile from 17. November 2018, 12:51

Brothers of Metal / Prophecy of Ragnarok (Limited Edition)

Used drive : HP DVD Writer 1170d Adapter: 1 ID: 1

Read mode : Secure
Utilize accurate stream : Yes
Defeat audio cache : Yes
Make use of C2 pointers : No

Read offset correction : 6
Overread into Lead-In and Lead-Out : No
Fill up missing offset samples with silence : Yes
Delete leading and trailing silent blocks : No
Null samples used in CRC calculations : Yes
Used interface : Native Win32 interface for Win NT & 2000

Used output format : User Defined Encoder
Selected bitrate : 1024 kBit/s
Quality : High
Add ID3 tag : No
Command line compressor : C:\Program Files (x86)\Exact Audio Copy\Flac\flac.exe
Additional command line options : -V -8 -T "Date=%year%" -T "Genre=%genre%" %source%

TOC of the extracted CD

Track | Start | Length | Start sector | End sector
---------------------------------------------------------
1 | 0:00.00 | 3:31.71 | 0 | 15895
2 | 3:31.71 | 4:01.26 | 15896 | 33996
3 | 7:33.22 | 3:44.28 | 33997 | 50824
4 | 11:17.50 | 4:10.41 | 50825 | 69615
5 | 15:28.16 | 1:40.04 | 69616 | 77119
6 | 17:08.20 | 4:34.19 | 77120 | 97688
7 | 21:42.39 | 3:37.43 | 97689 | 114006
8 | 25:20.07 | 3:38.10 | 114007 | 130366
9 | 28:58.17 | 3:56.64 | 130367 | 148130
10 | 32:55.06 | 4:14.68 | 148131 | 167248
11 | 37:09.74 | 3:39.12 | 167249 | 183685
12 | 40:49.11 | 3:06.19 | 183686 | 197654
13 | 43:55.30 | 3:14.00 | 197655 | 212204
14 | 47:09.30 | 4:42.47 | 212205 | 233401

Range status and errors

Selected range

Filename C:\EAC\ungern666\Brothers of Metal - Prophecy of Ragnarok (Limited Edition).wav

Peak level 96.6 %
Extraction speed 6.8 X
Range quality 100.0 %
Test CRC C1B6D7CC
Copy CRC C1B6D7CC
Copy OK

No errors occurred

AccurateRip summary
Track 1 not present in database
Track 2 not present in database
Track 3 not present in database
Track 4 not present in database
Track 5 not present in database
Track 6 not present in database
Track 7 not present in database
Track 8 not present in database
Track 9 not present in database
Track 10 not present in database
Track 11 not present in database
Track 12 not present in database
Track 13 not present in database
Track 14 not present in database
None of the tracks are present in the AccurateRip database

End of status report

---- CUETools DB Plugin V2.1.6

[CTDB TOCID: LAzeQBVoFZy3_1MhEUnU11JNap4-] disk not present in database
Submit result: LAzeQBVoFZy3_1MhEUnU11JNap4- has been uploaded

==== Log checksum 6E58532B851BFA6B70BCF436DE169D8B52215959C2CC51755E4F6690D49AFD88 ====
REM DATE 2018 
REM DISCID A60C280E
REM COMMENT "ExactAudioCopy v1.3"
PERFORMER "Brothers of Metal"
TITLE "Prophecy of Ragnarok (Limited Edition)"
FILE "Brothers of Metal - Prophecy of Ragnarok (Limited Edition).flac" WAVE
TRACK 01 AUDIO
TITLE "Death of the God of Light"
PERFORMER "Brothers of Metal"
INDEX 01 00:00:00
TRACK 02 AUDIO
TITLE "Son of Odin"
PERFORMER "Brothers of Metal"
INDEX 00 03:30:27
INDEX 01 03:31:71
TRACK 03 AUDIO
TITLE "Prophecy of Ragnarok"
PERFORMER "Brothers of Metal"
INDEX 00 07:31:22
INDEX 01 07:33:22
TRACK 04 AUDIO
TITLE "Defenders of Valhalla"
PERFORMER "Brothers of Metal"
INDEX 00 11:15:50
INDEX 01 11:17:50
TRACK 05 AUDIO
TITLE "Concerning Norns"
PERFORMER "Brothers of Metal"
INDEX 00 15:26:36
INDEX 01 15:28:16
TRACK 06 AUDIO
TITLE "Yggdrasil"
PERFORMER "Brothers of Metal"
INDEX 01 17:08:20
TRACK 07 AUDIO
TITLE "Tyr"
PERFORMER "Brothers of Metal"
INDEX 00 21:40:39
INDEX 01 21:42:39
TRACK 08 AUDIO
TITLE "Siblings of Metal"
PERFORMER "Brothers of Metal"
INDEX 00 25:18:07
INDEX 01 25:20:07
TRACK 09 AUDIO
TITLE "Gods of War"
PERFORMER "Brothers of Metal"
INDEX 00 28:56:17
INDEX 01 28:58:17
TRACK 10 AUDIO
TITLE "Freya"
PERFORMER "Brothers of Metal"
INDEX 00 32:53:06
INDEX 01 32:55:06
TRACK 11 AUDIO
TITLE "The Mead Song"
PERFORMER "Brothers of Metal"
INDEX 00 37:07:74
INDEX 01 37:09:74
TRACK 12 AUDIO
TITLE "Sleipnir"
PERFORMER "Brothers of Metal"
INDEX 00 40:47:11
INDEX 01 40:49:11
TRACK 13 AUDIO
TITLE "Fire Blood and Steel"
PERFORMER "Brothers of Metal"
INDEX 00 43:53:30
INDEX 01 43:55:30
TRACK 14 AUDIO
TITLE "We Believe in Metal"
PERFORMER "Brothers of Metal"
INDEX 00 47:07:30
INDEX 01 47:09:30

Этот торрент недоступен для скачивания без регистрации, однако доступен по публичной magnet-ссылке (источники с публичных трекеров). Перед использованием ссылки прочтите, пожалуйста Пользовательское соглашение, а также как можно дольше оставайтесь на раздаче! Для того, чтобы скачать сам торрент-файл (который видит больше источников), а также для того, чтобы поблагодарить релизера, вам необходимо зарегистрироваться. Если регистрироваться лень - вы можете также попробовать скачать релиз по нашим партнерским ссылкам ниже. Кроме того, зарегистрированным пользователям не показывается всплывающая реклама при скачивании.

[underver.se].t236664.torrent
Трекер: Зарегистрирован   [ 04.03.2022 09:51 ]  
Статус: проверено (by Бишеп at 04.03.2022 09:52)
Поблагодарили: пока никто не поблагодарил...
Тип торрента: публичный - доступные источники с открытых трекеров: 
Размер: 463 MB (занимает 0.1 DVDR, для записи нужно 1 болванка DVDR/RW)
 
 

Яндекс.Метрика powered by Sphinx


В Н И М А Н И Е
Сайт не распространяет и не хранит электронные версии произведений, а лишь бесплатно и без коммерческой выгоды (не требуя взамен платы,
SMS и т.д.) предоставляет доступ к создаваемому пользователями каталогу ссылок на торрент-файлы, которые содержат только списки хеш-сумм.
Убедительная просьба с жалобами обращаться напрямую к пользователю, разместившему торрент файл.

Вверх