Loading...
Error

(Thrash Metal, Speed Metal) Testament - Souls Of Black (1990) [FLAC (Image+.CUE), Lossless]

Статистика раздачи
Размер:  297 MB   |    Зарегистрирован:  6 месяцев   |    Скачан:  0 раз

Полного источника не было: Никогда

Сидов:  0  |  0 KB/s  ]   Личеров:  0  |  0 KB/s  ]

* - сиды/пиры с внешних источников

   
 
Автор Сообщение

Бишеп Пол:Муж

04-Мар-2022 16:43

Testament - Souls Of Black

Жанр: Thrash Metal, Speed Metal
Год выпуска: 1990
Носитель: CD
Производитель диска: Megaforce Worldwide - 7 82143-2, Atlantic - 82143-2
Аудиокодек: FLAC
Тип рипа: Image+.CUE
Битрейт аудио: lossless
Продолжительность: 00:39:17


Треклист:
01. Beginning Of The End
02. Face In The Sky
03. Falling Fast
04. Souls Of Black
05. Absence Of Light
06. Love To Hate
07. Malpractice
08. One Man's Fate
09. The Legacy
10. Seven Days Of May

Exact Audio Copy V1.6 from 23. October 2020 

EAC extraction logfile from 26. February 2022, 19:00

Testament / Souls of Black

Used drive : hp CDDVDW TS-U633J Adapter: 1 ID: 0

Read mode : Secure
Utilize accurate stream : Yes
Defeat audio cache : Yes
Make use of C2 pointers : No

Read offset correction : 6
Overread into Lead-In and Lead-Out : No
Fill up missing offset samples with silence : Yes
Delete leading and trailing silent blocks : No
Null samples used in CRC calculations : Yes
Used interface : Native Win32 interface for Win NT & 2000

Used output format : User Defined Encoder
Selected bitrate : 128 kBit/s
Quality : High
Add ID3 tag : Yes
Command line compressor : C:\Program Files (x86)\Exact Audio Copy\Flac\flac.exe
Additional command line options : -V -8 -T "Date=%year%" -T "Genre=%genre%" %source%

TOC of the extracted CD

Track | Start | Length | Start sector | End sector
---------------------------------------------------------
1 | 0:00.32 | 0:35.48 | 32 | 2704
2 | 0:36.05 | 3:53.65 | 2705 | 20244
3 | 4:29.70 | 4:05.05 | 20245 | 38624
4 | 8:35.00 | 3:22.37 | 38625 | 53811
5 | 11:57.37 | 3:54.68 | 53812 | 71429
6 | 15:52.30 | 3:40.17 | 71430 | 87946
7 | 19:32.47 | 4:43.20 | 87947 | 109191
8 | 24:15.67 | 4:49.45 | 109192 | 130911
9 | 29:05.37 | 5:30.65 | 130912 | 155726
10 | 34:36.27 | 4:40.30 | 155727 | 176756

Range status and errors

Selected range

Filename E:\Torrents\Testament - Souls Of Black (1990)\Testament - Souls of Black.wav

Peak level 100.0 %
Extraction speed 3.6 X
Range quality 100.0 %
Test CRC 94648198
Copy CRC 94648198
Copy OK

No errors occurred

AccurateRip summary
Track 1 accurately ripped (confidence 17) [B357EBBC] (AR v2)
Track 2 accurately ripped (confidence 17) [525CB932] (AR v2)
Track 3 accurately ripped (confidence 17) [0A14D168] (AR v2)
Track 4 accurately ripped (confidence 16) [9915F7E1] (AR v2)
Track 5 accurately ripped (confidence 16) [BC12A299] (AR v2)
Track 6 accurately ripped (confidence 17) [3D468795] (AR v2)
Track 7 accurately ripped (confidence 16) [AE627C80] (AR v2)
Track 8 accurately ripped (confidence 17) [09A33947] (AR v2)
Track 9 accurately ripped (confidence 16) [24920856] (AR v2)
Track 10 accurately ripped (confidence 17) [1C5C4182] (AR v2)
All tracks accurately ripped

End of status report

---- CUETools DB Plugin V2.1.6

[CTDB TOCID: LNAQ6Vp1c6gIMtyt4wn2VOmXPBg-] found
Submit result: already submitted
Track | CTDB Status
1 | (64/64) Accurately ripped
2 | (64/64) Accurately ripped
3 | (64/64) Accurately ripped
4 | (64/64) Accurately ripped
5 | (64/64) Accurately ripped
6 | (64/64) Accurately ripped
7 | (64/64) Accurately ripped
8 | (63/64) Accurately ripped
9 | (63/64) Accurately ripped
10 | (62/64) Accurately ripped

==== Log checksum D42F9AE00CD60AC3CE6934FFFD1CDC1443FCC9E814F5CFEB426F7526D4E446F6 ====
REM DATE 1990 
REM DISCID 8909340A
REM COMMENT "ExactAudioCopy v1.6"
PERFORMER "Testament"
TITLE "Souls of Black"
REM COMPOSER ""
FILE "Testament - Souls of Black.flac" WAVE
TRACK 01 AUDIO
TITLE "Beginning of the End"
PERFORMER "Testament"
REM COMPOSER ""
INDEX 00 00:00:00
INDEX 01 00:00:32
TRACK 02 AUDIO
TITLE "Face in the Sky"
PERFORMER "Testament"
REM COMPOSER ""
INDEX 00 00:36:03
INDEX 01 00:36:05
TRACK 03 AUDIO
TITLE "Falling Fast"
PERFORMER "Testament"
REM COMPOSER ""
INDEX 00 04:29:55
INDEX 01 04:29:70
TRACK 04 AUDIO
TITLE "Souls of Black"
PERFORMER "Testament"
REM COMPOSER ""
INDEX 00 08:34:70
INDEX 01 08:35:00
TRACK 05 AUDIO
TITLE "Absence of Light"
PERFORMER "Testament"
REM COMPOSER ""
INDEX 00 11:57:35
INDEX 01 11:57:37
TRACK 06 AUDIO
TITLE "Love to Hate"
PERFORMER "Testament"
REM COMPOSER ""
INDEX 00 15:52:28
INDEX 01 15:52:30
TRACK 07 AUDIO
TITLE "Malpractice"
PERFORMER "Testament"
REM COMPOSER ""
INDEX 00 19:32:45
INDEX 01 19:32:47
TRACK 08 AUDIO
TITLE "One Man's Fate"
PERFORMER "Testament"
REM COMPOSER ""
INDEX 00 24:15:65
INDEX 01 24:15:67
TRACK 09 AUDIO
TITLE "The Legacy"
PERFORMER "Testament"
REM COMPOSER ""
INDEX 00 29:05:00
INDEX 01 29:05:37
TRACK 10 AUDIO
TITLE "Seven Days of May"
PERFORMER "Testament"
REM COMPOSER ""
INDEX 00 34:36:25
INDEX 01 34:36:27

Этот торрент недоступен для скачивания без регистрации, однако доступен по публичной magnet-ссылке (источники с публичных трекеров). Перед использованием ссылки прочтите, пожалуйста Пользовательское соглашение, а также как можно дольше оставайтесь на раздаче! Для того, чтобы скачать сам торрент-файл (который видит больше источников), а также для того, чтобы поблагодарить релизера, вам необходимо зарегистрироваться. Если регистрироваться лень - вы можете также попробовать скачать релиз по нашим партнерским ссылкам ниже. Кроме того, зарегистрированным пользователям не показывается всплывающая реклама при скачивании.

[underver.se].t236685.torrent
Трекер: Зарегистрирован   [ 04.03.2022 16:43 ]  
Статус: проверено (by Бишеп at 04.03.2022 16:43)
Поблагодарили: пока никто не поблагодарил...
Тип торрента: публичный - доступные источники с открытых трекеров: 
Размер: 297 MB (занимает 0.07 DVDR, для записи нужно 1 болванка DVDR/RW)
 
 

Яндекс.Метрика powered by Sphinx


В Н И М А Н И Е
Сайт не распространяет и не хранит электронные версии произведений, а лишь бесплатно и без коммерческой выгоды (не требуя взамен платы,
SMS и т.д.) предоставляет доступ к создаваемому пользователями каталогу ссылок на торрент-файлы, которые содержат только списки хеш-сумм.
Убедительная просьба с жалобами обращаться напрямую к пользователю, разместившему торрент файл.

Вверх