Loading...
Error

(Progressive Metal, Technical Metal, Djent) Animals as Leaders - Parrhesia (2022) [FLAC (Tracks+.Cue), Lossless]

Статистика раздачи
Размер:  256 MB   |    Зарегистрирован:  6 месяцев   |    Скачан:  3 раза

Полного источника не было: 3 месяца 28 дней

Сидов:  0  |  0 KB/s  ]   Личеров:  0  |  0 KB/s  ]

* - сиды/пиры с внешних источников

   
 
Автор Сообщение

Бишеп Пол:Муж

06-Мар-2022 06:12

Animals as Leaders - Parrhesia

Жанр: Progressive Metal, Technical Metal, Djent
Год выпуска: 2022
Носитель: CD
Производитель диска: Sumerian Records
Аудиокодек: FLAC
Тип рипа: Tracks+.CUE
Битрейт аудио: lossless
Продолжительность: 00:36:56


Треклист:
01. Conflict Cartography (05:00)
02. Monomyth (03:27)
03. Red Miso (04:31)
04. Gestaltzerfall (04:46)
05. Asahi (01:51)
06. The Problem of Other Minds (02:33)
07. Thoughts and Prayers (05:49)
08. Micro-Aggressions (04:11)
09. Gordian Naught (04:49)

Exact Audio Copy V1.1 from 23. June 2015 

EAC extraction logfile from 26. February 2022, 14:17

Animals as Leaders / Parrhesia

Used drive : TSSTcorpCDW/DVD TS-L462D Adapter: 1 ID: 0

Read mode : Secure
Utilize accurate stream : Yes
Defeat audio cache : Yes
Make use of C2 pointers : No

Read offset correction : 6
Overread into Lead-In and Lead-Out : No
Fill up missing offset samples with silence : Yes
Delete leading and trailing silent blocks : No
Null samples used in CRC calculations : Yes
Used interface : Native Win32 interface for Win NT & 2000
Gap handling : Appended to previous track

Used output format : User Defined Encoder
Selected bitrate : 1024 kBit/s
Quality : High
Add ID3 tag : No
Command line compressor : C:\Program Files (x86)\Exact Audio Copy\Flac\flac.exe
Additional command line options : -8 -V -T "artist=%artist%" -T "albumartist=%albumartist%" -T "composer=%albumcomposer%" -T "title=%title%" -T "album=%albumtitle%" -T "date=%year%" -T "tracknumber=%tracknr2%" -T "tracktotal=%numtracks%" -T "discnumber=%cdnumber%" -T "disctotal=%totalcds%" -T "genre=%genre%" -T "description=%comment%" %source%

TOC of the extracted CD

Track | Start | Length | Start sector | End sector
---------------------------------------------------------
1 | 0:00.00 | 5:00.06 | 0 | 22505
2 | 5:00.06 | 3:26.04 | 22506 | 37959
3 | 8:26.10 | 4:31.04 | 37960 | 58288
4 | 12:57.14 | 4:46.27 | 58289 | 79765
5 | 17:43.41 | 1:51.18 | 79766 | 88108
6 | 19:34.59 | 2:32.63 | 88109 | 99571
7 | 22:07.47 | 5:48.63 | 99572 | 125734
8 | 27:56.35 | 4:10.71 | 125735 | 144555
9 | 32:07.31 | 4:48.44 | 144556 | 166199

Track 1

Filename C:\Users\Earl of Windsford\Desktop\Animals as Leaders - Parrhesia [2022]\01 - Conflict Cartography.wav

Pre-gap length 0:00:02.00

Peak level 98.8 %
Extraction speed 2.6 X
Track quality 99.9 %
Test CRC CFF11A61
Copy CRC CFF11A61
Track not present in AccurateRip database
Copy OK

Track 2

Filename C:\Users\Earl of Windsford\Desktop\Animals as Leaders - Parrhesia [2022]\02 - Monomyth.wav

Peak level 98.8 %
Extraction speed 3.1 X
Track quality 100.0 %
Test CRC 73EBAA85
Copy CRC 73EBAA85
Track not present in AccurateRip database
Copy OK

Track 3

Filename C:\Users\Earl of Windsford\Desktop\Animals as Leaders - Parrhesia [2022]\03 - Red Miso.wav

Peak level 98.8 %
Extraction speed 3.5 X
Track quality 100.0 %
Test CRC BBE43C7D
Copy CRC BBE43C7D
Track not present in AccurateRip database
Copy OK

Track 4

Filename C:\Users\Earl of Windsford\Desktop\Animals as Leaders - Parrhesia [2022]\04 - Gestaltzerfall.wav

Peak level 98.8 %
Extraction speed 3.8 X
Track quality 100.0 %
Test CRC 8FCF61DE
Copy CRC 8FCF61DE
Track not present in AccurateRip database
Copy OK

Track 5

Filename C:\Users\Earl of Windsford\Desktop\Animals as Leaders - Parrhesia [2022]\05 - Asahi.wav

Peak level 96.4 %
Extraction speed 2.6 X
Track quality 99.9 %
Test CRC EE0F5E5E
Copy CRC EE0F5E5E
Track not present in AccurateRip database
Copy OK

Track 6

Filename C:\Users\Earl of Windsford\Desktop\Animals as Leaders - Parrhesia [2022]\06 - The Problem of Other Minds.wav

Peak level 98.8 %
Extraction speed 3.8 X
Track quality 100.0 %
Test CRC E72801B9
Copy CRC E72801B9
Track not present in AccurateRip database
Copy OK

Track 7

Filename C:\Users\Earl of Windsford\Desktop\Animals as Leaders - Parrhesia [2022]\07 - Thoughts and Prayers.wav

Peak level 98.8 %
Extraction speed 4.4 X
Track quality 100.0 %
Test CRC 66BD0349
Copy CRC 66BD0349
Track not present in AccurateRip database
Copy OK

Track 8

Filename C:\Users\Earl of Windsford\Desktop\Animals as Leaders - Parrhesia [2022]\08 - Micro Aggressions.wav

Peak level 98.8 %
Extraction speed 4.5 X
Track quality 100.0 %
Test CRC D3C54890
Copy CRC D3C54890
Track not present in AccurateRip database
Copy OK

Track 9

Filename C:\Users\Earl of Windsford\Desktop\Animals as Leaders - Parrhesia [2022]\09 - Gordian Naught.wav

Peak level 98.8 %
Extraction speed 3.3 X
Track quality 99.8 %
Test CRC A4A7498D
Copy CRC A4A7498D
Track not present in AccurateRip database
Copy OK

None of the tracks are present in the AccurateRip database

No errors occurred

End of status report

---- CUETools DB Plugin V2.1.6

[CTDB TOCID: L7NJmJBEdp3CwpWxcfpoHxABiUM-] disk not present in database
Submit result: L7NJmJBEdp3CwpWxcfpoHxABiUM- has been uploaded

==== Log checksum 2FA1BF7FA0BFACCA5E360CD23829655A2EE48F18B83B97D0B0D182F322340D9C ====
REM GENRE "Math Rock" 
REM DATE 2022
REM DISCID 8008A809
REM COMMENT "ExactAudioCopy v1.1"
PERFORMER "Animals as Leaders"
TITLE "Parrhesia"
FILE "01 - Conflict Cartography.wav" WAVE
TRACK 01 AUDIO
TITLE "Conflict Cartography"
PERFORMER "Animals as Leaders"
ISRC USYFZ2263409
INDEX 01 00:00:00
FILE "02 - Monomyth.wav" WAVE
TRACK 02 AUDIO
TITLE "Monomyth"
PERFORMER "Animals as Leaders"
ISRC USYFZ2159201
INDEX 01 00:00:00
FILE "03 - Red Miso.wav" WAVE
TRACK 03 AUDIO
TITLE "Red Miso"
PERFORMER "Animals as Leaders"
ISRC USYFZ2263403
INDEX 01 00:00:00
FILE "04 - Gestaltzerfall.wav" WAVE
TRACK 04 AUDIO
TITLE "Gestaltzerfall"
PERFORMER "Animals as Leaders"
ISRC USYFZ2263404
INDEX 01 00:00:00
FILE "05 - Asahi.wav" WAVE
TRACK 05 AUDIO
TITLE "Asahi"
PERFORMER "Animals as Leaders"
ISRC USYFZ2263405
INDEX 01 00:00:00
FILE "06 - The Problem of Other Minds.wav" WAVE
TRACK 06 AUDIO
TITLE "The Problem of Other Minds"
PERFORMER "Animals as Leaders"
ISRC USYFZ2263406
INDEX 01 00:00:00
FILE "07 - Thoughts and Prayers.wav" WAVE
TRACK 07 AUDIO
TITLE "Thoughts and Prayers"
PERFORMER "Animals as Leaders"
ISRC USYFZ2263407
INDEX 01 00:00:00
FILE "08 - Micro Aggressions.wav" WAVE
TRACK 08 AUDIO
TITLE "Micro Aggressions"
PERFORMER "Animals as Leaders"
ISRC USYFZ2263408
INDEX 01 00:00:00
FILE "09 - Gordian Naught.wav" WAVE
TRACK 09 AUDIO
TITLE "Gordian Naught"
PERFORMER "Animals as Leaders"
ISRC USYFZ2263401
INDEX 01 00:00:00

Этот торрент недоступен для скачивания без регистрации, однако доступен по публичной magnet-ссылке (источники с публичных трекеров). Перед использованием ссылки прочтите, пожалуйста Пользовательское соглашение, а также как можно дольше оставайтесь на раздаче! Для того, чтобы скачать сам торрент-файл (который видит больше источников), а также для того, чтобы поблагодарить релизера, вам необходимо зарегистрироваться. Если регистрироваться лень - вы можете также попробовать скачать релиз по нашим партнерским ссылкам ниже. Кроме того, зарегистрированным пользователям не показывается всплывающая реклама при скачивании.

[underver.se].t236754.torrent
Трекер: Зарегистрирован   [ 06.03.2022 06:12 ]  
Статус: проверено (by Бишеп at 06.03.2022 06:12)
Поблагодарили: пока никто не поблагодарил...
Тип торрента: публичный - доступные источники с открытых трекеров: 
Размер: 256 MB (занимает 0.06 DVDR, для записи нужно 1 болванка DVDR/RW)
 
 

Яндекс.Метрика powered by Sphinx


В Н И М А Н И Е
Сайт не распространяет и не хранит электронные версии произведений, а лишь бесплатно и без коммерческой выгоды (не требуя взамен платы,
SMS и т.д.) предоставляет доступ к создаваемому пользователями каталогу ссылок на торрент-файлы, которые содержат только списки хеш-сумм.
Убедительная просьба с жалобами обращаться напрямую к пользователю, разместившему торрент файл.

Вверх