Loading...
Error

(Thrash Metal, Speed Metal) Testament - Practice What You Preach (1989) [FLAC (Image+.CUE), Lossless]

Статистика раздачи
Размер:  406 MB   |    Зарегистрирован:  6 месяцев   |    Скачан:  1 раз

Полного источника не было: 6 месяцев

Сидов:  0  |  0 KB/s  ]   Личеров:  0  |  0 KB/s  ]

* - сиды/пиры с внешних источников

   
 
Автор Сообщение

Бишеп Пол:Муж

06-Мар-2022 11:09

Testament - Practice What You Preach

Жанр: Thrash Metal, Speed Metal
Год выпуска: 1989
Носитель: CD
Производитель диска: Megaforce Worldwide, Atlantic - 7567-82009-2
Аудиокодек: FLAC
Тип рипа: Image+.CUE
Битрейт аудио: lossless
Продолжительность: 00:46:17


Треклист:
01. Practice What You Preach
02. Perilous Nation
03. Envy Life
04. Time Is Coming
05. Blessed in Contempt
06. Greenhouse Effect
07. Sins of Omission
08. The Ballad
09. Nightmare (Coming Back to You)
10. Confusion Fusion

Exact Audio Copy V1.6 from 23. October 2020 

EAC extraction logfile from 26. February 2022, 22:24

Testament / Practice What You Preach

Used drive : hp CDDVDW TS-U633J Adapter: 1 ID: 0

Read mode : Secure
Utilize accurate stream : Yes
Defeat audio cache : Yes
Make use of C2 pointers : No

Read offset correction : 6
Overread into Lead-In and Lead-Out : No
Fill up missing offset samples with silence : Yes
Delete leading and trailing silent blocks : No
Null samples used in CRC calculations : Yes
Used interface : Native Win32 interface for Win NT & 2000

Used output format : User Defined Encoder
Selected bitrate : 128 kBit/s
Quality : High
Add ID3 tag : Yes
Command line compressor : C:\Program Files (x86)\Exact Audio Copy\Flac\flac.exe
Additional command line options : -V -8 -T "Date=%year%" -T "Genre=%genre%" %source%

TOC of the extracted CD

Track | Start | Length | Start sector | End sector
---------------------------------------------------------
1 | 0:00.00 | 4:55.28 | 0 | 22152
2 | 4:55.28 | 5:52.12 | 22153 | 48564
3 | 10:47.40 | 4:16.28 | 48565 | 67792
4 | 15:03.68 | 5:26.35 | 67793 | 92277
5 | 20:30.28 | 4:14.10 | 92278 | 111337
6 | 24:44.38 | 4:53.67 | 111338 | 133379
7 | 29:38.30 | 5:01.18 | 133380 | 155972
8 | 34:39.48 | 6:08.22 | 155973 | 183594
9 | 40:47.70 | 2:20.55 | 183595 | 194149
10 | 43:08.50 | 3:07.68 | 194150 | 208242

Range status and errors

Selected range

Filename E:\Torrents\Testament - Practice What You Preach (1989)\Testament - Practice What You Preach.wav

Peak level 100.0 %
Extraction speed 3.3 X
Range quality 100.0 %
Test CRC ADE446CE
Copy CRC ADE446CE
Copy OK

No errors occurred

AccurateRip summary
Track 1 accurately ripped (confidence 46) [DFC0E6B8] (AR v2)
Track 2 accurately ripped (confidence 46) [4AB90FED] (AR v2)
Track 3 accurately ripped (confidence 45) [743CCA39] (AR v2)
Track 4 accurately ripped (confidence 45) [72A6B8DB] (AR v2)
Track 5 accurately ripped (confidence 45) [34308FE3] (AR v2)
Track 6 accurately ripped (confidence 45) [3B6EC8EB] (AR v2)
Track 7 accurately ripped (confidence 45) [59162219] (AR v2)
Track 8 accurately ripped (confidence 45) [2C68F95E] (AR v2)
Track 9 accurately ripped (confidence 45) [F71841A7] (AR v2)
Track 10 accurately ripped (confidence 45) [F32CED98] (AR v2)
All tracks accurately ripped

End of status report

---- CUETools DB Plugin V2.1.6

[CTDB TOCID: yz_uoJ0Q2FmDpElcLqZoXFia0Kg-] found
Submit result: yz_uoJ0Q2FmDpElcLqZoXFia0Kg- has been confirmed
Track | CTDB Status
1 | (637/643) Accurately ripped
2 | (634/643) Accurately ripped
3 | (638/643) Accurately ripped
4 | (637/643) Accurately ripped
5 | (638/643) Accurately ripped
6 | (639/643) Accurately ripped
7 | (637/643) Accurately ripped
8 | (635/643) Accurately ripped
9 | (638/643) Accurately ripped
10 | (632/643) Accurately ripped, or (2/643) differs in 4650 samples @03:07:49-03:07:53

==== Log checksum 65034AADF0BE602093D998C6EDD430472C7B66B59FFD0194378EEEBB238E9F54 ====
REM DATE 1989 
REM DISCID 8E0AD80A
REM COMMENT "ExactAudioCopy v1.6"
PERFORMER "Testament"
TITLE "Practice What You Preach"
REM COMPOSER ""
FILE "Testament - Practice What You Preach.flac" WAVE
TRACK 01 AUDIO
TITLE "Practice What You Preach"
PERFORMER "Testament"
REM COMPOSER ""
INDEX 01 00:00:00
TRACK 02 AUDIO
TITLE "Perilous Nation"
PERFORMER "Testament"
REM COMPOSER ""
INDEX 00 04:54:35
INDEX 01 04:55:28
TRACK 03 AUDIO
TITLE "Envy Life"
PERFORMER "Testament"
REM COMPOSER ""
INDEX 00 10:46:05
INDEX 01 10:47:40
TRACK 04 AUDIO
TITLE "Time Is Coming"
PERFORMER "Testament"
REM COMPOSER ""
INDEX 00 15:03:45
INDEX 01 15:03:68
TRACK 05 AUDIO
TITLE "Blessed in Contempt"
PERFORMER "Testament"
REM COMPOSER ""
INDEX 00 20:30:08
INDEX 01 20:30:28
TRACK 06 AUDIO
TITLE "Greenhouse Effect"
PERFORMER "Testament"
REM COMPOSER ""
INDEX 00 24:42:50
INDEX 01 24:44:38
TRACK 07 AUDIO
TITLE "Sins of Omission"
PERFORMER "Testament"
REM COMPOSER ""
INDEX 00 29:37:63
INDEX 01 29:38:30
TRACK 08 AUDIO
TITLE "The Ballad"
PERFORMER "Testament"
REM COMPOSER ""
INDEX 00 34:38:63
INDEX 01 34:39:48
TRACK 09 AUDIO
TITLE "Nightmare (Coming Back to You)"
PERFORMER "Testament"
REM COMPOSER ""
INDEX 00 40:47:30
INDEX 01 40:47:70
TRACK 10 AUDIO
TITLE "Confusion Fusion"
PERFORMER "Testament"
REM COMPOSER ""
INDEX 00 43:08:13
INDEX 01 43:08:50

Этот торрент недоступен для скачивания без регистрации, однако доступен по публичной magnet-ссылке (источники с публичных трекеров). Перед использованием ссылки прочтите, пожалуйста Пользовательское соглашение, а также как можно дольше оставайтесь на раздаче! Для того, чтобы скачать сам торрент-файл (который видит больше источников), а также для того, чтобы поблагодарить релизера, вам необходимо зарегистрироваться. Если регистрироваться лень - вы можете также попробовать скачать релиз по нашим партнерским ссылкам ниже. Кроме того, зарегистрированным пользователям не показывается всплывающая реклама при скачивании.

[underver.se].t236776.torrent
Трекер: Зарегистрирован   [ 06.03.2022 11:09 ]  
Статус: проверено (by Бишеп at 06.03.2022 11:10)
Поблагодарили: пока никто не поблагодарил...
Тип торрента: публичный - доступные источники с открытых трекеров: 
Размер: 406 MB (занимает 0.09 DVDR, для записи нужно 1 болванка DVDR/RW)
 
 

Яндекс.Метрика powered by Sphinx


В Н И М А Н И Е
Сайт не распространяет и не хранит электронные версии произведений, а лишь бесплатно и без коммерческой выгоды (не требуя взамен платы,
SMS и т.д.) предоставляет доступ к создаваемому пользователями каталогу ссылок на торрент-файлы, которые содержат только списки хеш-сумм.
Убедительная просьба с жалобами обращаться напрямую к пользователю, разместившему торрент файл.

Вверх