Loading...
Error

(Power Metal) Power Paladin - With The Magic Of Windfyre Steel (2022) [FLAC (Image+.CUE), Lossless]

Статистика раздачи
Размер:  394 MB   |    Зарегистрирован:  6 месяцев   |    Скачан:  1 раз

Полного источника не было: 7 дней

Сидов:  0  |  0 KB/s  ]   Личеров:  0  |  0 KB/s  ]

* - сиды/пиры с внешних источников

   
 
Автор Сообщение

Бишеп Пол:Муж

07-Мар-2022 16:11

Power Paladin - With The Magic Of Windfyre Steel

Жанр: Power Metal
Год выпуска: 2022
Носитель: CD
Производитель диска: Chaos Reigns - GQCS-91136
Аудиокодек: FLAC
Тип рипа: Image+.CUE
Битрейт аудио: lossless
Продолжительность: 00:51:43


Треклист:
01. Kraven The Hunter
02. Righteous Fury
03. Evermore
04. Dark Crystal
05. Way Of Kings
06. Ride The Distant Storm
07. Creatures Of The Night
08. Into The Forbidden Forest
09. There Can Be Only One

Exact Audio Copy V1.6 from 23. October 2020 

EAC extraction logfile from 6. February 2022, 18:51

Power Paladin / With the Magic of Windfyre Steel (GQCS-91136)

Used drive : ASUS BW-16D1HT Adapter: 1 ID: 0

Read mode : Secure
Utilize accurate stream : Yes
Defeat audio cache : Yes
Make use of C2 pointers : No

Read offset correction : 6
Overread into Lead-In and Lead-Out : No
Fill up missing offset samples with silence : Yes
Delete leading and trailing silent blocks : No
Null samples used in CRC calculations : Yes
Used interface : Native Win32 interface for Win NT & 2000

Used output format : User Defined Encoder
Selected bitrate : 1024 kBit/s
Quality : High
Add ID3 tag : No
Command line compressor : C:\Program Files (x86)\Exact Audio Copy\Flac\flac.exe
Additional command line options : -6 -V -T "ARTIST=%artist%" -T "TITLE=%title%" -T "ALBUM=%albumtitle%" -T "DATE=%year%" -T "TRACKNUMBER=%tracknr%" -T "GENRE=%genre%" -T "COMMENT=%comment%" -T "BAND=%albuminterpret%" -T "ALBUMARTIST=%albuminterpret%" -T "COMPOSER=%composer%" %haslyrics%--tag-from-file=LYRICS="%lyricsfile%"%haslyrics% -T "DISCNUMBER=%cdnumber%" -T "TOTALDISCS=%totalcds%" -T "TOTALTRACKS=%numtracks%" %hascover%--picture="%coverfile%"%hascover% %source% -o %dest%

TOC of the extracted CD

Track | Start | Length | Start sector | End sector
---------------------------------------------------------
1 | 0:00.00 | 5:33.61 | 0 | 25035
2 | 5:33.61 | 5:15.18 | 25036 | 48678
3 | 10:49.04 | 4:34.39 | 48679 | 69267
4 | 15:23.43 | 5:59.18 | 69268 | 96210
5 | 21:22.61 | 5:13.27 | 96211 | 119712
6 | 26:36.13 | 4:58.21 | 119713 | 142083
7 | 31:34.34 | 5:40.20 | 142084 | 167603
8 | 37:14.54 | 7:34.37 | 167604 | 201690
9 | 44:49.16 | 6:53.50 | 201691 | 232715

Range status and errors

Selected range

Filename D:\MUSIC\Power Paladin - With the Magic of Windfyre Steel (GQCS-91136).wav

Peak level 97.4 %
Extraction speed 7.3 X
Range quality 99.9 %
Test CRC 2FADF8FA
Copy CRC 2FADF8FA
Copy OK

No errors occurred

AccurateRip summary
Track 1 not present in database
Track 2 not present in database
Track 3 not present in database
Track 4 not present in database
Track 5 not present in database
Track 6 not present in database
Track 7 not present in database
Track 8 not present in database
Track 9 not present in database
None of the tracks are present in the AccurateRip database

End of status report

---- CUETools DB Plugin V2.1.6

[CTDB TOCID: dTBqkXOsEPq43A41KskYOn4yvrk-] found
Submit result: dTBqkXOsEPq43A41KskYOn4yvrk- has been confirmed
Track | CTDB Status
1 | (14/14) Accurately ripped
2 | (13/14) Accurately ripped
3 | (13/14) Accurately ripped
4 | (13/14) Accurately ripped
5 | (13/14) Accurately ripped
6 | (13/14) Accurately ripped
7 | (13/14) Accurately ripped
8 | (13/14) Accurately ripped
9 | (13/14) Accurately ripped

==== Log checksum 93A85CAF23EFD45F9A9702B3E9AFC55FA481BF4D76B05AB73DB5CC1F42B16480 ====
REM GENRE "Power Metal" 
REM DATE 2022
REM DISCID 860C1E09
REM COMMENT "ExactAudioCopy v1.6"
PERFORMER "Power Paladin"
TITLE "With The Magic Of Windfyre Steel (GQCS-91136)"
REM COMPOSER ""
FILE "Power Paladin - With The Magic Of Windfyre Steel (GQCS-91136).flac" WAVE
TRACK 01 AUDIO
TITLE "Kraven The Hunter"
PERFORMER "Power Paladin"
REM COMPOSER ""
INDEX 01 00:00:00
TRACK 02 AUDIO
TITLE "Righteous Fury"
PERFORMER "Power Paladin (feat. Oskar Runarsson)"
REM COMPOSER ""
INDEX 01 05:33:61
TRACK 03 AUDIO
TITLE "Evermore"
PERFORMER "Power Paladin"
REM COMPOSER ""
INDEX 01 10:49:04
TRACK 04 AUDIO
TITLE "Dark Crystal"
PERFORMER "Power Paladin (feat. Oskar Runarsson)"
REM COMPOSER ""
INDEX 01 15:23:43
TRACK 05 AUDIO
TITLE "Way Of Kings"
PERFORMER "Power Paladin"
REM COMPOSER ""
INDEX 01 21:22:61
TRACK 06 AUDIO
TITLE "Ride The Distant Storm"
PERFORMER "Power Paladin"
REM COMPOSER ""
INDEX 01 26:36:13
TRACK 07 AUDIO
TITLE "Creatures Of The Night"
PERFORMER "Power Paladin"
REM COMPOSER ""
INDEX 01 31:34:34
TRACK 08 AUDIO
TITLE "Into The Forbidden Forest"
PERFORMER "Power Paladin"
REM COMPOSER ""
INDEX 01 37:14:54
TRACK 09 AUDIO
TITLE "There Can Be Only One"
PERFORMER "Power Paladin"
REM COMPOSER ""
INDEX 01 44:49:16

Этот торрент недоступен для скачивания без регистрации, однако доступен по публичной magnet-ссылке (источники с публичных трекеров). Перед использованием ссылки прочтите, пожалуйста Пользовательское соглашение, а также как можно дольше оставайтесь на раздаче! Для того, чтобы скачать сам торрент-файл (который видит больше источников), а также для того, чтобы поблагодарить релизера, вам необходимо зарегистрироваться. Если регистрироваться лень - вы можете также попробовать скачать релиз по нашим партнерским ссылкам ниже. Кроме того, зарегистрированным пользователям не показывается всплывающая реклама при скачивании.

[underver.se].t236842.torrent
Трекер: Зарегистрирован   [ 07.03.2022 16:11 ]  
Статус: проверено (by Бишеп at 07.03.2022 16:11)
Поблагодарили: 1 человек
Тип торрента: публичный - доступные источники с открытых трекеров: 
Размер: 394 MB (занимает 0.09 DVDR, для записи нужно 1 болванка DVDR/RW)
 
 

Яндекс.Метрика powered by Sphinx


В Н И М А Н И Е
Сайт не распространяет и не хранит электронные версии произведений, а лишь бесплатно и без коммерческой выгоды (не требуя взамен платы,
SMS и т.д.) предоставляет доступ к создаваемому пользователями каталогу ссылок на торрент-файлы, которые содержат только списки хеш-сумм.
Убедительная просьба с жалобами обращаться напрямую к пользователю, разместившему торрент файл.

Вверх